SHARE
TWEET

Con.Air.1997.BluRay.1080p.DTS-HD.MA.5.1.VC-1.REMUX-FraMeSToR

a guest Jun 12th, 2019 42 Never
Not a member of Pastebin yet? Sign Up, it unlocks many cool features!
  1. General
  2. Complete name                            : ConAir.1997.BluRay.1080p.DTS-HD.MA.5.1.VC-1.REMUX-FraMeSToR.mkv
  3. Format                                   : Matroska
  4. Format version                           : Version 4
  5. File size                                : 21.3 GiB
  6. Duration                                 : 1 h 55 min
  7. Overall bit rate mode                    : Variable
  8. Overall bit rate                         : 26.4 Mb/s
  9. Encoded date                             : UTC 2018-03-12 11:27:41
  10. Writing application                      : mkvmerge v21.0.0 ('Tardigrades Will Inherit The Earth') 64-bit
  11. Writing library                          : libebml v1.3.5 + libmatroska v1.4.8
  12.  
  13. Video
  14. ID                                       : 1
  15. Format                                   : VC-1
  16. Format profile                           : Advanced@L3
  17. Codec ID                                 : V_MS/VFW/FOURCC / WVC1
  18. Codec ID/Hint                            : Microsoft
  19. Duration                                 : 1 h 55 min
  20. Bit rate                                 : 23.0 Mb/s
  21. Width                                    : 1 920 pixels
  22. Height                                   : 1 080 pixels
  23. Display aspect ratio                     : 16:9
  24. Frame rate mode                          : Constant
  25. Frame rate                               : 23.976 (24000/1001) FPS
  26. Color space                              : YUV
  27. Chroma subsampling                       : 4:2:0
  28. Bit depth                                : 8 bits
  29. Scan type                                : Progressive
  30. Compression mode                         : Lossy
  31. Bits/(Pixel*Frame)                       : 0.463
  32. Stream size                              : 18.6 GiB (87%)
  33. Default                                  : Yes
  34. Forced                                   : No
  35.  
  36. Audio
  37. ID                                       : 2
  38. Format                                   : DTS XLL
  39. Format/Info                              : Digital Theater Systems
  40. Commercial name                          : DTS-HD Master Audio
  41. Codec ID                                 : A_DTS
  42. Duration                                 : 1 h 55 min
  43. Bit rate mode                            : Variable
  44. Bit rate                                 : 2 553 kb/s
  45. Channel(s)                               : 6 channels
  46. Channel layout                           : C L R Ls Rs LFE
  47. Sampling rate                            : 48.0 kHz
  48. Frame rate                               : 93.750 FPS (512 SPF)
  49. Bit depth                                : 16 bits
  50. Compression mode                         : Lossless
  51. Stream size                              : 2.06 GiB (10%)
  52. Title                                    : DTS-HD MA 5.1
  53. Language                                 : English
  54. Default                                  : Yes
  55. Forced                                   : No
  56.  
  57. Text #1
  58. ID                                       : 3
  59. Format                                   : PGS
  60. Codec ID                                 : S_HDMV/PGS
  61. Codec ID/Info                            : Picture based subtitle format used on BDs/HD-DVDs
  62. Duration                                 : 1 h 47 min
  63. Bit rate                                 : 32.0 kb/s
  64. Count of elements                        : 2284
  65. Stream size                              : 24.7 MiB (0%)
  66. Title                                    : English
  67. Language                                 : English
  68. Default                                  : No
  69. Forced                                   : No
  70.  
  71. Text #2
  72. ID                                       : 4
  73. Format                                   : PGS
  74. Codec ID                                 : S_HDMV/PGS
  75. Codec ID/Info                            : Picture based subtitle format used on BDs/HD-DVDs
  76. Duration                                 : 1 h 54 min
  77. Bit rate                                 : 31.6 kb/s
  78. Count of elements                        : 2450
  79. Stream size                              : 26.0 MiB (0%)
  80. Title                                    : English (SDH)
  81. Language                                 : English
  82. Default                                  : No
  83. Forced                                   : No
  84.  
  85. Text #3
  86. ID                                       : 5
  87. Format                                   : PGS
  88. Codec ID                                 : S_HDMV/PGS
  89. Codec ID/Info                            : Picture based subtitle format used on BDs/HD-DVDs
  90. Duration                                 : 1 h 47 min
  91. Bit rate                                 : 23.0 kb/s
  92. Count of elements                        : 1804
  93. Stream size                              : 17.7 MiB (0%)
  94. Title                                    : Czech
  95. Language                                 : Czech
  96. Default                                  : No
  97. Forced                                   : No
  98.  
  99. Text #4
  100. ID                                       : 6
  101. Format                                   : PGS
  102. Codec ID                                 : S_HDMV/PGS
  103. Codec ID/Info                            : Picture based subtitle format used on BDs/HD-DVDs
  104. Duration                                 : 1 h 47 min
  105. Bit rate                                 : 25.3 kb/s
  106. Count of elements                        : 1976
  107. Stream size                              : 19.5 MiB (0%)
  108. Title                                    : Hungarian
  109. Language                                 : Hungarian
  110. Default                                  : No
  111. Forced                                   : No
  112.  
  113. Text #5
  114. ID                                       : 7
  115. Format                                   : PGS
  116. Codec ID                                 : S_HDMV/PGS
  117. Codec ID/Info                            : Picture based subtitle format used on BDs/HD-DVDs
  118. Duration                                 : 1 h 47 min
  119. Bit rate                                 : 27.7 kb/s
  120. Count of elements                        : 2334
  121. Stream size                              : 21.3 MiB (0%)
  122. Title                                    : Polish
  123. Language                                 : Polish
  124. Default                                  : No
  125. Forced                                   : No
  126.  
  127. Text #6
  128. ID                                       : 8
  129. Format                                   : PGS
  130. Codec ID                                 : S_HDMV/PGS
  131. Codec ID/Info                            : Picture based subtitle format used on BDs/HD-DVDs
  132. Duration                                 : 1 h 54 min
  133. Bit rate                                 : 28.6 kb/s
  134. Count of elements                        : 2344
  135. Stream size                              : 23.5 MiB (0%)
  136. Title                                    : Russian
  137. Language                                 : Russian
  138. Default                                  : No
  139. Forced                                   : No
  140.  
  141. Text #7
  142. ID                                       : 9
  143. Format                                   : PGS
  144. Codec ID                                 : S_HDMV/PGS
  145. Codec ID/Info                            : Picture based subtitle format used on BDs/HD-DVDs
  146. Duration                                 : 1 h 47 min
  147. Bit rate                                 : 17.6 kb/s
  148. Count of elements                        : 2342
  149. Stream size                              : 13.6 MiB (0%)
  150. Title                                    : Arabic
  151. Language                                 : Arabic
  152. Default                                  : No
  153. Forced                                   : No
  154.  
  155. Text #8
  156. ID                                       : 10
  157. Format                                   : PGS
  158. Codec ID                                 : S_HDMV/PGS
  159. Codec ID/Info                            : Picture based subtitle format used on BDs/HD-DVDs
  160. Duration                                 : 1 h 47 min
  161. Bit rate                                 : 23.6 kb/s
  162. Count of elements                        : 1846
  163. Stream size                              : 18.2 MiB (0%)
  164. Title                                    : Bulgarian
  165. Language                                 : Bulgarian
  166. Default                                  : No
  167. Forced                                   : No
  168.  
  169. Text #9
  170. ID                                       : 11
  171. Format                                   : PGS
  172. Codec ID                                 : S_HDMV/PGS
  173. Codec ID/Info                            : Picture based subtitle format used on BDs/HD-DVDs
  174. Duration                                 : 1 h 47 min
  175. Bit rate                                 : 26.0 kb/s
  176. Count of elements                        : 1990
  177. Stream size                              : 20.0 MiB (0%)
  178. Title                                    : Greek
  179. Language                                 : Greek
  180. Default                                  : No
  181. Forced                                   : No
  182.  
  183. Text #10
  184. ID                                       : 12
  185. Format                                   : PGS
  186. Codec ID                                 : S_HDMV/PGS
  187. Codec ID/Info                            : Picture based subtitle format used on BDs/HD-DVDs
  188. Duration                                 : 1 h 47 min
  189. Bit rate                                 : 23.5 kb/s
  190. Count of elements                        : 2262
  191. Stream size                              : 18.1 MiB (0%)
  192. Title                                    : Croatian
  193. Language                                 : Croatian
  194. Default                                  : No
  195. Forced                                   : No
  196.  
  197. Text #11
  198. ID                                       : 13
  199. Format                                   : PGS
  200. Codec ID                                 : S_HDMV/PGS
  201. Codec ID/Info                            : Picture based subtitle format used on BDs/HD-DVDs
  202. Duration                                 : 1 h 47 min
  203. Bit rate                                 : 22.1 kb/s
  204. Count of elements                        : 2326
  205. Stream size                              : 17.0 MiB (0%)
  206. Title                                    : Hebrew
  207. Language                                 : Hebrew
  208. Default                                  : No
  209. Forced                                   : No
  210.  
  211. Text #12
  212. ID                                       : 14
  213. Format                                   : PGS
  214. Codec ID                                 : S_HDMV/PGS
  215. Codec ID/Info                            : Picture based subtitle format used on BDs/HD-DVDs
  216. Duration                                 : 1 h 48 min
  217. Bit rate                                 : 26.9 kb/s
  218. Count of elements                        : 2356
  219. Stream size                              : 20.9 MiB (0%)
  220. Title                                    : Portuguese
  221. Language                                 : Portuguese
  222. Default                                  : No
  223. Forced                                   : No
  224.  
  225. Text #13
  226. ID                                       : 15
  227. Format                                   : PGS
  228. Codec ID                                 : S_HDMV/PGS
  229. Codec ID/Info                            : Picture based subtitle format used on BDs/HD-DVDs
  230. Duration                                 : 1 h 47 min
  231. Bit rate                                 : 28.9 kb/s
  232. Count of elements                        : 2326
  233. Stream size                              : 22.2 MiB (0%)
  234. Title                                    : Romanian
  235. Language                                 : Romanian
  236. Default                                  : No
  237. Forced                                   : No
  238.  
  239. Text #14
  240. ID                                       : 16
  241. Format                                   : PGS
  242. Codec ID                                 : S_HDMV/PGS
  243. Codec ID/Info                            : Picture based subtitle format used on BDs/HD-DVDs
  244. Duration                                 : 1 h 54 min
  245. Bit rate                                 : 28.7 kb/s
  246. Count of elements                        : 2356
  247. Stream size                              : 23.6 MiB (0%)
  248. Title                                    : Slovak
  249. Language                                 : Slovak
  250. Default                                  : No
  251. Forced                                   : No
  252.  
  253. Text #15
  254. ID                                       : 17
  255. Format                                   : PGS
  256. Codec ID                                 : S_HDMV/PGS
  257. Codec ID/Info                            : Picture based subtitle format used on BDs/HD-DVDs
  258. Duration                                 : 1 h 47 min
  259. Bit rate                                 : 19.3 kb/s
  260. Count of elements                        : 1766
  261. Stream size                              : 14.9 MiB (0%)
  262. Title                                    : Slovenian
  263. Language                                 : Slovenian
  264. Default                                  : No
  265. Forced                                   : No
  266.  
  267. Text #16
  268. ID                                       : 18
  269. Format                                   : PGS
  270. Codec ID                                 : S_HDMV/PGS
  271. Codec ID/Info                            : Picture based subtitle format used on BDs/HD-DVDs
  272. Duration                                 : 1 h 47 min
  273. Bit rate                                 : 29.0 kb/s
  274. Count of elements                        : 2344
  275. Stream size                              : 22.3 MiB (0%)
  276. Title                                    : Serbian
  277. Language                                 : Serbian
  278. Default                                  : No
  279. Forced                                   : No
  280.  
  281. Text #17
  282. ID                                       : 19
  283. Format                                   : PGS
  284. Codec ID                                 : S_HDMV/PGS
  285. Codec ID/Info                            : Picture based subtitle format used on BDs/HD-DVDs
  286. Duration                                 : 1 h 47 min
  287. Bit rate                                 : 30.6 kb/s
  288. Count of elements                        : 2318
  289. Stream size                              : 23.6 MiB (0%)
  290. Title                                    : Turkish
  291. Language                                 : Turkish
  292. Default                                  : No
  293. Forced                                   : No
  294.  
  295. Text #18
  296. ID                                       : 20
  297. Format                                   : PGS
  298. Codec ID                                 : S_HDMV/PGS
  299. Codec ID/Info                            : Picture based subtitle format used on BDs/HD-DVDs
  300. Duration                                 : 1 h 47 min
  301. Bit rate                                 : 29.6 kb/s
  302. Count of elements                        : 2342
  303. Stream size                              : 22.8 MiB (0%)
  304. Title                                    : Ukrainian
  305. Language                                 : Ukrainian
  306. Default                                  : No
  307. Forced                                   : No
  308.  
  309. Text #19
  310. ID                                       : 21
  311. Format                                   : PGS
  312. Codec ID                                 : S_HDMV/PGS
  313. Codec ID/Info                            : Picture based subtitle format used on BDs/HD-DVDs
  314. Duration                                 : 1 h 47 min
  315. Bit rate                                 : 34.5 kb/s
  316. Count of elements                        : 2504
  317. Stream size                              : 26.5 MiB (0%)
  318. Title                                    : Japanese
  319. Language                                 : Japanese
  320. Default                                  : No
  321. Forced                                   : No
  322.  
  323. Text #20
  324. ID                                       : 22
  325. Format                                   : PGS
  326. Codec ID                                 : S_HDMV/PGS
  327. Codec ID/Info                            : Picture based subtitle format used on BDs/HD-DVDs
  328. Duration                                 : 1 h 47 min
  329. Bit rate                                 : 49.1 kb/s
  330. Count of elements                        : 2684
  331. Stream size                              : 37.8 MiB (0%)
  332. Title                                    : Korean
  333. Language                                 : Korean
  334. Default                                  : No
  335. Forced                                   : No
  336.  
  337. Text #21
  338. ID                                       : 23
  339. Format                                   : PGS
  340. Codec ID                                 : S_HDMV/PGS
  341. Codec ID/Info                            : Picture based subtitle format used on BDs/HD-DVDs
  342. Duration                                 : 1 h 47 min
  343. Bit rate                                 : 61.2 kb/s
  344. Count of elements                        : 2677
  345. Stream size                              : 47.1 MiB (0%)
  346. Title                                    : Malay
  347. Language                                 : Malay
  348. Default                                  : No
  349. Forced                                   : No
  350.  
  351. Text #22
  352. ID                                       : 24
  353. Format                                   : PGS
  354. Codec ID                                 : S_HDMV/PGS
  355. Codec ID/Info                            : Picture based subtitle format used on BDs/HD-DVDs
  356. Duration                                 : 1 h 47 min
  357. Bit rate                                 : 39.0 kb/s
  358. Count of elements                        : 2428
  359. Stream size                              : 30.0 MiB (0%)
  360. Title                                    : Thai
  361. Language                                 : Thai
  362. Default                                  : No
  363. Forced                                   : No
  364.  
  365. Text #23
  366. ID                                       : 25
  367. Format                                   : PGS
  368. Codec ID                                 : S_HDMV/PGS
  369. Codec ID/Info                            : Picture based subtitle format used on BDs/HD-DVDs
  370. Duration                                 : 1 h 47 min
  371. Bit rate                                 : 51.1 kb/s
  372. Count of elements                        : 3014
  373. Stream size                              : 39.4 MiB (0%)
  374. Title                                    : Chinese
  375. Language                                 : Chinese
  376. Default                                  : No
  377. Forced                                   : No
  378.  
  379. Text #24
  380. ID                                       : 26
  381. Format                                   : PGS
  382. Codec ID                                 : S_HDMV/PGS
  383. Codec ID/Info                            : Picture based subtitle format used on BDs/HD-DVDs
  384. Duration                                 : 1 h 47 min
  385. Bit rate                                 : 55.4 kb/s
  386. Count of elements                        : 2174
  387. Stream size                              : 42.7 MiB (0%)
  388. Title                                    : Indonesian
  389. Language                                 : Indonesian
  390. Default                                  : No
  391. Forced                                   : No
  392.  
  393. Text #25
  394. ID                                       : 27
  395. Format                                   : PGS
  396. Codec ID                                 : S_HDMV/PGS
  397. Codec ID/Info                            : Picture based subtitle format used on BDs/HD-DVDs
  398. Duration                                 : 1 h 47 min
  399. Bit rate                                 : 45.4 kb/s
  400. Count of elements                        : 2118
  401. Stream size                              : 34.9 MiB (0%)
  402. Title                                    : German
  403. Language                                 : German
  404. Default                                  : No
  405. Forced                                   : No
  406.  
  407. Text #26
  408. ID                                       : 28
  409. Format                                   : PGS
  410. Codec ID                                 : S_HDMV/PGS
  411. Codec ID/Info                            : Picture based subtitle format used on BDs/HD-DVDs
  412. Duration                                 : 1 h 47 min
  413. Bit rate                                 : 41.2 kb/s
  414. Count of elements                        : 1800
  415. Stream size                              : 31.7 MiB (0%)
  416. Title                                    : Italian
  417. Language                                 : Italian
  418. Default                                  : No
  419. Forced                                   : No
  420.  
  421. Text #27
  422. ID                                       : 29
  423. Format                                   : PGS
  424. Codec ID                                 : S_HDMV/PGS
  425. Codec ID/Info                            : Picture based subtitle format used on BDs/HD-DVDs
  426. Duration                                 : 1 h 47 min
  427. Bit rate                                 : 37.5 kb/s
  428. Count of elements                        : 1694
  429. Stream size                              : 28.9 MiB (0%)
  430. Title                                    : French
  431. Language                                 : French
  432. Default                                  : No
  433. Forced                                   : No
  434.  
  435. Menu
  436. 00:00:00.000                             : en:Program Start
  437. 00:10:07.968                             : en:Going Home
  438. 00:22:02.304                             : en:Fire on Board
  439. 00:28:29.471                             : en:Everybody Freeze!
  440. 00:35:14.639                             : en:Discovering the Plan
  441. 00:42:55.140                             : en:Let's Go!
  442. 00:50:22.842                             : en:Sizing Up Poe
  443. 00:57:24.743                             : en:Personal Stuff
  444. 01:01:00.410                             : en:Put the Bunny Back
  445. 01:04:15.944                             : en:Lerner Field
  446. 01:09:03.578                             : en:Poe Intervenes
  447. 01:13:17.279                             : en:Surprise Encounter
  448. 01:22:53.446                             : en:Attack
  449. 01:27:26.781                             : en:Tied Up
  450. 01:34:50.583                             : en:Viva Las Vegas
  451. 01:40:38.451                             : en:Motocycle Chase
  452. 01:46:04.619                             : en:"How Do I Live"
  453. 01:48:10.953                             : en:End Credits
RAW Paste Data
We use cookies for various purposes including analytics. By continuing to use Pastebin, you agree to our use of cookies as described in the Cookies Policy. OK, I Understand
Top