Ledger Nano X - The secure hardware wallet
SHARE
TWEET

John.Wick.2.REMUX

iMN0 Jun 3rd, 2017 (edited) 400 Never
Not a member of Pastebin yet? Sign Up, it unlocks many cool features!
  1. Video
  2. ID                                       : 1
  3. Format                                   : AVC
  4. Format/Info                              : Advanced Video Codec
  5. Format profile                           : High@L4.1
  6. Format settings, CABAC                   : Yes
  7. Format settings, ReFrames                : 4 frames
  8. Codec ID                                 : V_MPEG4/ISO/AVC
  9. Duration                                 : 2h 2mn
  10. Bit rate mode                            : Variable
  11. Maximum bit rate                         : 37.0 Mbps
  12. Width                                    : 1 920 pixels
  13. Height                                   : 1 080 pixels
  14. Display aspect ratio                     : 16:9
  15. Frame rate mode                          : Constant
  16. Frame rate                               : 23.976 (24000/1001) fps
  17. Color space                              : YUV
  18. Chroma subsampling                       : 4:2:0
  19. Bit depth                                : 8 bits
  20. Scan type                                : Progressive
  21. Title                                    : John.Wick.Chapter.2.2017.1080p.BluRay.REMUX.AVC.DTS-HD.MA.TrueHD.7.1.Atmos-FGT
  22. Language                                 : English
  23. Default                                  : No
  24. Forced                                   : No
  25.  
  26. Audio #1
  27. ID                                       : 2
  28. Format                                   : DTS
  29. Format/Info                              : Digital Theater Systems
  30. Format profile                           : MA / Core
  31. Mode                                     : 16
  32. Format settings, Endianness              : Big
  33. Codec ID                                 : A_DTS
  34. Duration                                 : 2h 2mn
  35. Bit rate mode                            : Variable / Constant
  36. Bit rate                                 : Unknown / 1 509 Kbps
  37. Channel(s)                               : 8 channels / 6 channels
  38. Channel positions                        : Front: L C R, Side: L R, Back: L R, LFE / Front: L C R, Side: L R, LFE
  39. Sampling rate                            : 48.0 KHz
  40. Frame rate                               : 93.750 fps (512 spf)
  41. Bit depth                                : 24 bits
  42. Compression mode                         : Lossless / Lossy
  43. Title                                    : John.Wick.Chapter.2.2017.1080p.BluRay.REMUX.AVC.DTS-HD.MA.TrueHD.7.1.Atmos-FGT
  44. Language                                 : English
  45. Default                                  : Yes
  46. Forced                                   : No
  47.  
  48. Audio #2
  49. ID                                       : 3
  50. Format                                   : Atmos / TrueHD
  51. Codec ID                                 : A_TRUEHD
  52. Bit rate mode                            : Variable
  53. Maximum bit rate                         : 8 814 Kbps
  54. Channel(s)                               : Object Based / 8 channels
  55. Channel positions                        : Object Based / Front: L C R, Side: L R, Back: L R, LFE
  56. Sampling rate                            :  / 48.0 KHz
  57. Frame rate                               : 1 200.000 fps (40 spf)
  58. Compression mode                         : Lossless
  59. Title                                    : John.Wick.Chapter.2.2017.1080p.BluRay.REMUX.AVC.DTS-HD.MA.TrueHD.7.1.Atmos-FGT
  60. Language                                 : English
  61. Default                                  : No
  62. Forced                                   : No
  63.  
  64. Audio #3
  65. ID                                       : 4
  66. Format                                   : AC-3
  67. Format/Info                              : Audio Coding 3
  68. Mode extension                           : CM (complete main)
  69. Format settings, Endianness              : Big
  70. Codec ID                                 : A_AC3
  71. Duration                                 : 2h 2mn
  72. Bit rate mode                            : Constant
  73. Bit rate                                 : 640 Kbps
  74. Channel(s)                               : 6 channels
  75. Channel positions                        : Front: L C R, Side: L R, LFE
  76. Sampling rate                            : 48.0 KHz
  77. Frame rate                               : 31.250 fps (1536 spf)
  78. Compression mode                         : Lossy
  79. Stream size                              : 560 MiB (2%)
  80. Title                                    : Surround 5.1
  81. Language                                 : English
  82. Default                                  : No
  83. Forced                                   : No
  84.  
  85. Audio #4
  86. ID                                       : 5
  87. Format                                   : AC-3
  88. Format/Info                              : Audio Coding 3
  89. Format profile                           : Dolby Digital
  90. Mode extension                           : CM (complete main)
  91. Format settings, Endianness              : Big
  92. Codec ID                                 : A_AC3
  93. Duration                                 : 2h 2mn
  94. Bit rate mode                            : Constant
  95. Bit rate                                 : 224 Kbps
  96. Channel(s)                               : 2 channels
  97. Channel positions                        : Front: L R
  98. Sampling rate                            : 48.0 KHz
  99. Frame rate                               : 31.250 fps (1536 spf)
  100. Compression mode                         : Lossy
  101. Stream size                              : 196 MiB (1%)
  102. Title                                    : Stereo
  103. Language                                 : English
  104. Default                                  : No
  105. Forced                                   : No
  106.  
  107. Audio #5
  108. ID                                       : 6
  109. Format                                   : AC-3
  110. Format/Info                              : Audio Coding 3
  111. Mode extension                           : CM (complete main)
  112. Format settings, Endianness              : Big
  113. Codec ID                                 : A_AC3
  114. Duration                                 : 2h 2mn
  115. Bit rate mode                            : Constant
  116. Bit rate                                 : 640 Kbps
  117. Channel(s)                               : 6 channels
  118. Channel positions                        : Front: L C R, Side: L R, LFE
  119. Sampling rate                            : 48.0 KHz
  120. Frame rate                               : 31.250 fps (1536 spf)
  121. Compression mode                         : Lossy
  122. Stream size                              : 560 MiB (2%)
  123. Title                                    : Surround 5.1
  124. Language                                 : Spanish
  125. Default                                  : No
  126. Forced                                   : No
  127.  
  128. Audio #6
  129. ID                                       : 7
  130. Format                                   : AC-3
  131. Format/Info                              : Audio Coding 3
  132. Format profile                           : Dolby Digital
  133. Mode extension                           : CM (complete main)
  134. Format settings, Endianness              : Big
  135. Codec ID                                 : A_AC3
  136. Duration                                 : 2h 2mn
  137. Bit rate mode                            : Constant
  138. Bit rate                                 : 192 Kbps
  139. Channel(s)                               : 2 channels
  140. Channel positions                        : Front: L R
  141. Sampling rate                            : 48.0 KHz
  142. Frame rate                               : 31.250 fps (1536 spf)
  143. Compression mode                         : Lossy
  144. Stream size                              : 168 MiB (0%)
  145. Title                                    : Stereo
  146. Language                                 : English
  147. Default                                  : No
  148. Forced                                   : No
  149.  
  150. Audio #7
  151. ID                                       : 8
  152. Format                                   : AC-3
  153. Format/Info                              : Audio Coding 3
  154. Format profile                           : Dolby Digital
  155. Mode extension                           : CM (complete main)
  156. Format settings, Endianness              : Big
  157. Codec ID                                 : A_AC3
  158. Duration                                 : 2h 2mn
  159. Bit rate mode                            : Constant
  160. Bit rate                                 : 224 Kbps
  161. Channel(s)                               : 2 channels
  162. Channel positions                        : Front: L R
  163. Sampling rate                            : 48.0 KHz
  164. Frame rate                               : 31.250 fps (1536 spf)
  165. Compression mode                         : Lossy
  166. Stream size                              : 196 MiB (1%)
  167. Title                                    : Stereo
  168. Language                                 : English
  169. Default                                  : No
  170. Forced                                   : No
  171.  
  172. Text #1
  173. ID                                       : 9
  174. Format                                   : UTF-8
  175. Codec ID                                 : S_TEXT/UTF8
  176. Codec ID/Info                            : UTF-8 Plain Text
  177. Title                                    : English-SRT
  178. Language                                 : English
  179. Default                                  : Yes
  180. Forced                                   : No
  181.  
  182. Text #2
  183. ID                                       : 10
  184. Format                                   : PGS
  185. Muxing mode                              : zlib
  186. Codec ID                                 : S_HDMV/PGS
  187. Codec ID/Info                            : Picture based subtitle format used on BDs/HD-DVDs
  188. Title                                    : English-PGS
  189. Language                                 : English
  190. Default                                  : No
  191. Forced                                   : No
  192.  
  193. Text #3
  194. ID                                       : 11
  195. Format                                   : PGS
  196. Muxing mode                              : zlib
  197. Codec ID                                 : S_HDMV/PGS
  198. Codec ID/Info                            : Picture based subtitle format used on BDs/HD-DVDs
  199. Title                                    : English-SDH-PGS
  200. Language                                 : English
  201. Default                                  : No
  202. Forced                                   : No
  203.  
  204. Text #4
  205. ID                                       : 12
  206. Format                                   : PGS
  207. Muxing mode                              : zlib
  208. Codec ID                                 : S_HDMV/PGS
  209. Codec ID/Info                            : Picture based subtitle format used on BDs/HD-DVDs
  210. Title                                    : Spanish-PGS
  211. Language                                 : Spanish
  212. Default                                  : No
  213. Forced                                   : No
  214.  
  215. Text #5
  216. ID                                       : 13
  217. Format                                   : PGS
  218. Muxing mode                              : zlib
  219. Codec ID                                 : S_HDMV/PGS
  220. Codec ID/Info                            : Picture based subtitle format used on BDs/HD-DVDs
  221. Title                                    : Spanish-FORCED-PGS
  222. Language                                 : Spanish
  223. Default                                  : No
  224. Forced                                   : No
  225.  
  226. Menu
  227. 00:00:00.000                             : en:Chapter 01
  228. 00:06:31.682                             : en:Chapter 02
  229. 00:16:57.933                             : en:Chapter 03
  230. 00:26:35.594                             : en:Chapter 04
  231. 00:34:38.034                             : en:Chapter 05
  232. 00:42:07.816                             : en:Chapter 06
  233. 00:48:07.050                             : en:Chapter 07
  234. 00:56:41.648                             : en:Chapter 08
  235. 01:01:42.782                             : en:Chapter 09
  236. 01:10:27.681                             : en:Chapter 10
  237. 01:17:15.922                             : en:Chapter 11
  238. 01:24:22.640                             : en:Chapter 12
  239. 01:32:11.234                             : en:Chapter 13
  240. 01:40:01.328                             : en:Chapter 14
  241. 01:46:34.763                             : en:Chapter 15
  242. 01:54:01.042                             : en:Chapter 16
RAW Paste Data
We use cookies for various purposes including analytics. By continuing to use Pastebin, you agree to our use of cookies as described in the Cookies Policy. OK, I Understand
Top