moninil066

Untitled

Oct 5th, 2019
115
Never
Not a member of Pastebin yet? Sign Up, it unlocks many cool features!
  1. General
  2. Complete name                            :Empire.Gypsy.2013.1080p.WEBRip.DD2.0.x264-monkee.mkv
  3. Format                                   : Matroska
  4. Format version                           : Version 4
  5. File size                                : 3.68 GiB
  6. Duration                                 : 1 h 13 min
  7. Overall bit rate mode                    : Variable
  8. Overall bit rate                         : 7 178 kb/s
  9. Writing application                      : mkvmerge v12.0.0 ('Trust / Lust') 64bit
  10. Writing library                          : libebml v1.3.4 + libmatroska v1.4.5
  11.  
  12. Video
  13. ID                                       : 1
  14. Format                                   : AVC
  15. Format/Info                              : Advanced Video Codec
  16. Format profile                           : High@L4
  17. Format settings                          : CABAC / 4 Ref Frames
  18. Format settings, CABAC                   : Yes
  19. Format settings, Reference frames        : 4 frames
  20. Codec ID                                 : V_MPEG4/ISO/AVC
  21. Duration                                 : 1 h 13 min
  22. Bit rate mode                            : Variable
  23. Bit rate                                 : 6 951 kb/s
  24. Maximum bit rate                         : 15.0 Mb/s
  25. Width                                    : 1 920 pixels
  26. Height                                   : 1 080 pixels
  27. Display aspect ratio                     : 16:9
  28. Frame rate mode                          : Constant
  29. Frame rate                               : 23.976 (24000/1001) FPS
  30. Color space                              : YUV
  31. Chroma subsampling                       : 4:2:0
  32. Bit depth                                : 8 bits
  33. Scan type                                : Progressive
  34. Bits/(Pixel*Frame)                       : 0.140
  35. Stream size                              : 3.57 GiB (97%)
  36. Writing library                          : x264 core 148 r2623 d5b2374
  37. Default                                  : Yes
  38. Forced                                   : No
  39. Color range                              : Limited
  40. Color primaries                          : BT.709
  41. Transfer characteristics                 : BT.709
  42. Matrix coefficients                      : BT.709
  43.  
  44. Audio
  45. ID                                       : 2
  46. Format                                   : E-AC-3
  47. Format/Info                              : Enhanced AC-3
  48. Commercial name                          : Dolby Digital Plus
  49. Codec ID                                 : A_EAC3
  50. Duration                                 : 1 h 13 min
  51. Bit rate mode                            : Constant
  52. Bit rate                                 : 224 kb/s
  53. Channel(s)                               : 2 channels
  54. Channel layout                           : L R
  55. Sampling rate                            : 48.0 kHz
  56. Frame rate                               : 31.250 FPS (1536 SPF)
  57. Compression mode                         : Lossy
  58. Stream size                              : 118 MiB (3%)
  59. Language                                 : English
  60. Service kind                             : Complete Main
  61. Default                                  : Yes
  62. Forced                                   : No
  63.  
  64. Text
  65. ID                                       : 3
  66. Format                                   : UTF-8
  67. Codec ID                                 : S_TEXT/UTF8
  68. Codec ID/Info                            : UTF-8 Plain Text
  69. Duration                                 : 1 h 13 min
  70. Bit rate                                 : 91 b/s
  71. Count of elements                        : 1568
  72. Stream size                              : 49.1 KiB (0%)
  73. Language                                 : English
  74. Default                                  : No
  75. Forced                                   : No
RAW Paste Data