Guest User

Untitled

a guest
Oct 11th, 2019
162
Never
Not a member of Pastebin yet? Sign Up, it unlocks many cool features!
  1. General
  2. Unique ID : 209813697496623549608399748608788262299 (0x9DD8A5F55BF8B78C1823AF286BE7ED9B)
  3. Complete name : Mister.America.2019.1080p.WEB-DL.H264.AC3-EVO
  4. Format : Matroska
  5. Format version : Version 4
  6. File size : 3.44 GiB
  7. Duration : 1 h 28 min
  8. Overall bit rate : 5 570 kb/s
  9. Encoded date : UTC 2019-10-11 14:56:32
  10. Writing application : mkvmerge v35.0.0 ('All The Love In The World') 64-bit
  11. Writing library : libebml v1.3.9 + libmatroska v1.5.2
  12.  
  13. Video
  14. ID : 3
  15. Format : AVC
  16. Format/Info : Advanced Video Codec
  17. Format profile : High@L4
  18. Format settings : CABAC / 4 Ref Frames
  19. Format settings, CABAC : Yes
  20. Format settings, Reference frames : 4 frames
  21. Codec ID : V_MPEG4/ISO/AVC
  22. Duration : 1 h 28 min
  23. Bit rate : 5 184 kb/s
  24. Width : 1 920 pixels
  25. Height : 1 080 pixels
  26. Display aspect ratio : 16:9
  27. Frame rate mode : Constant
  28. Frame rate : 23.976 FPS
  29. Color space : YUV
  30. Chroma subsampling : 4:2:0
  31. Bit depth : 8 bits
  32. Scan type : Progressive
  33. Bits/(Pixel*Frame) : 0.104
  34. Stream size : 3.20 GiB (93%)
  35. Language : English
  36. Default : Yes
  37. Forced : No
  38. Color range : Limited
  39. Color primaries : BT.709
  40. Transfer characteristics : BT.709
  41. Matrix coefficients : BT.709
  42.  
  43. Audio
  44. ID : 2
  45. Format : AC-3
  46. Format/Info : Audio Coding 3
  47. Commercial name : Dolby Digital
  48. Codec ID : A_AC3
  49. Duration : 1 h 28 min
  50. Bit rate mode : Constant
  51. Bit rate : 384 kb/s
  52. Channel(s) : 6 channels
  53. Channel layout : L R C LFE Ls Rs
  54. Sampling rate : 48.0 kHz
  55. Frame rate : 31.250 FPS (1536 SPF)
  56. Bit depth : 16 bits
  57. Compression mode : Lossy
  58. Delay relative to video : -42 ms
  59. Stream size : 243 MiB (7%)
  60. Language : English
  61. Service kind : Complete Main
  62. Default : Yes
  63. Forced : No
  64.  
  65. Text
  66. ID : 1
  67. Format : UTF-8
  68. Codec ID : S_TEXT/UTF8
  69. Codec ID/Info : UTF-8 Plain Text
  70. Duration : 1 h 28 min
  71. Bit rate : 144 b/s
  72. Count of elements : 1940
  73. Stream size : 93.1 KiB (0%)
  74. Language : English
  75. Default : Yes
  76. Forced : No
  77.  
  78. Menu
  79. 00:00:00.000 : en:Heidecker for DA
  80. 00:06:05.865 : en:Rosetti is a Rat
  81. 00:09:33.989 : en:Contempt of Court
  82. 00:13:24.052 : en:Campaign meeting
  83. 00:20:45.034 : en:Gregg Turkington
  84. 00:27:08.083 : en:Window posters
  85. 00:31:06.070 : en:Canvassing
  86. 00:36:12.167 : en:Hotel meeting
  87. 00:42:28.918 : en:Forging signatures
  88. 00:45:37.146 : en:Confrontation
  89. 00:52:07.578 : en:B Roll
  90. 00:56:39.974 : en:Town Hall Debate
  91. 01:03:11.407 : en:Questions and Answers
  92. 01:12:01.561 : en:Outburst
  93. 01:14:10.147 : en:Voting
  94. 01:20:45.833 : en:Style over Substance
RAW Paste Data