Advertisement
Guest User

Untitled

a guest
Jan 13th, 2022
19
Never
Not a member of Pastebin yet? Sign Up, it unlocks many cool features!
  1. Общее
  2. Уникальный идентификатор : 175764216306158431692598015556527415495 (0x843AF4EC7DE6FC9CAF87F0A1E8A960C7)
  3. Полное имя : The.Grave.1996.BluRay.REMUX.1080p.mkv
  4. Формат : Matroska
  5. Версия формата : Version 4
  6. Размер файла : 23,6 Гбайт
  7. Продолжительность : 1 ч. 30 м.
  8. Режим общего битрейта : Переменный
  9. Общий поток : 37,4 Мбит/сек
  10. Название фильма : The Grave 1996
  11. Дата кодирования : UTC 2022-01-12 19:37:36
  12. Программа кодирования : mkvmerge v61.0.0 ('So') 64-bit
  13. Библиотека кодирования : libebml v1.4.2 + libmatroska v1.6.4
  14. Обложка : Yes
  15. Attachments : cover.jpg
  16.  
  17. Видео
  18. Идентификатор : 1
  19. ID in the original source medium : 4113 (0x1011)
  20. Формат : AVC
  21. Формат/Информация : Advanced Video Codec
  22. Профиль формата : High@L4.1
  23. Настройки формата : CABAC / 3 Ref Frames
  24. Параметр CABAC формата : Да
  25. Параметр RefFrames формата : 3 кадра
  26. Идентификатор кодека : V_MPEG4/ISO/AVC
  27. Продолжительность : 1 ч. 30 м.
  28. Вид битрейта : Переменный
  29. Битрейт : 35,0 Мбит/сек
  30. Максимальный битрейт : 40,0 Мбит/сек
  31. Ширина : 1 920 пикселей
  32. Высота : 1 080 пикселей
  33. Соотношение сторон : 16:9
  34. Режим частоты кадров : Постоянный
  35. Частота кадров : 23,976 (24000/1001) кадра/сек
  36. Стандарт вещания : NTSC
  37. Цветовое пространство : YUV
  38. Субдискретизация насыщенности : 4:2:0
  39. Битовая глубина : 8 бит
  40. Тип развёртки : Прогрессивная
  41. Бит/(Пиксели*Кадры) : 0.704
  42. Размер потока : 22,0 Гбайт (93%)
  43. Заголовок : USA / Vinegar Syndrome / HDT
  44. Библиотека кодирования : x264pro - Adobe CS Exporter Plug-in
  45. Настройки программы : cabac=1 / ref=4 / deblock=1:-1:-1 / analyse=0x3:0x133 / me=umh / subme=10 / psy=1 / psy_rd=1.00:0.15 / mixed_ref=1 / me_range=24 / chroma_me=1 / trellis=2 / 8x8dct=1 / cqm=0 / deadzone=21,11 / fast_pskip=1 / chroma_qp_offset=-3 / threads=12 / lookahead_threads=2 / sliced_threads=0 / slices=4 / nr=0 / decimate=1 / interlaced=0 / bluray_compat=1 / constrained_intra=0 / bframes=3 / b_pyramid=1 / b_adapt=2 / b_bias=0 / direct=3 / weightb=1 / open_gop=0 / weightp=1 / keyint=24 / keyint_min=1 / scenecut=40 / intra_refresh=0 / rc_lookahead=24 / rc=2pass / mbtree=1 / bitrate=35000 / ratetol=1.0 / qcomp=0.60 / qpmin=0 / qpmax=69 / qpstep=4 / cplxblur=20.0 / qblur=0.5 / vbv_maxrate=40000 / vbv_bufsize=30000 / nal_hrd=vbr / ip_ratio=1.40 / aq=1:1.00
  46. Язык : English
  47. Default : Да
  48. Forced : Нет
  49. Цветовой диапазон : Limited
  50. Основные цвета : BT.709
  51. Характеристики трансфера : BT.709
  52. Коэффициенты матрицы : BT.709
  53. Носитель оригинала : Blu-ray
  54.  
  55. Аудио #1
  56. Идентификатор : 2
  57. Формат : AC-3
  58. Формат/Информация : Audio Coding 3
  59. Коммерческое название : Dolby Digital
  60. Идентификатор кодека : A_AC3
  61. Продолжительность : 1 ч. 30 м.
  62. Вид битрейта : Постоянный
  63. Битрейт : 192 Кбит/сек
  64. Каналы : 2 канала
  65. Channel layout : L R
  66. Частота : 48,0 КГц
  67. Частота кадров : 31,250 кадров/сек (1536 SPF)
  68. Метод сжатия : С потерями
  69. Размер потока : 124 Мбайт (1%)
  70. Заголовок : AVO - Карцев
  71. Язык : Russian
  72. Service kind : Complete Main
  73. Default : Да
  74. Forced : Нет
  75.  
  76. Аудио #2
  77. Идентификатор : 3
  78. Формат : AC-3
  79. Формат/Информация : Audio Coding 3
  80. Коммерческое название : Dolby Digital
  81. Идентификатор кодека : A_AC3
  82. Продолжительность : 1 ч. 30 м.
  83. Вид битрейта : Постоянный
  84. Битрейт : 192 Кбит/сек
  85. Каналы : 2 канала
  86. Channel layout : L R
  87. Частота : 48,0 КГц
  88. Частота кадров : 31,250 кадров/сек (1536 SPF)
  89. Метод сжатия : С потерями
  90. Размер потока : 124 Мбайт (1%)
  91. Заголовок : AVO - Визгунов
  92. Язык : Russian
  93. Service kind : Complete Main
  94. Default : Нет
  95. Forced : Нет
  96.  
  97. Аудио #3
  98. Идентификатор : 4
  99. ID in the original source medium : 4352 (0x1100)
  100. Формат : DTS XLL
  101. Формат/Информация : Digital Theater Systems
  102. Коммерческое название : DTS-HD Master Audio
  103. Идентификатор кодека : A_DTS
  104. Продолжительность : 1 ч. 30 м.
  105. Вид битрейта : Переменный
  106. Битрейт : 2 123 Кбит/сек
  107. Каналы : 2 канала
  108. Channel layout : L R
  109. Частота : 48,0 КГц
  110. Частота кадров : 93,750 кадра/сек (512 SPF)
  111. Битовая глубина : 24 бит
  112. Метод сжатия : Без потерь
  113. Размер потока : 1,34 Гбайт (6%)
  114. Заголовок : Original
  115. Язык : English
  116. Default : Нет
  117. Forced : Нет
  118. Носитель оригинала : Blu-ray
  119.  
  120. Текст #1
  121. Идентификатор : 5
  122. Формат : UTF-8
  123. Идентификатор кодека : S_TEXT/UTF8
  124. Идентификатор кодека/Информация : UTF-8 Plain Text
  125. Продолжительность : 1 ч. 21 м.
  126. Битрейт : 76 бит/сек
  127. Count of elements : 1445
  128. Размер потока : 45,7 Кбайт (0%)
  129. Заголовок : Full
  130. Язык : English
  131. Default : Нет
  132. Forced : Нет
  133.  
  134. Текст #2
  135. Идентификатор : 6
  136. ID in the original source medium : 4608 (0x1200)
  137. Формат : PGS
  138. Режим смешивания : zlib
  139. Идентификатор кодека : S_HDMV/PGS
  140. Идентификатор кодека/Информация : Picture based subtitle format used on BDs/HD-DVDs
  141. Продолжительность : 1 ч. 26 м.
  142. Битрейт : 49,5 Кбит/сек
  143. Count of elements : 3559
  144. Размер потока : 30,5 Мбайт (0%)
  145. Заголовок : SDH
  146. Язык : English
  147. Default : Нет
  148. Forced : Нет
  149. Носитель оригинала : Blu-ray
  150.  
  151. Меню
  152. 00:00:00.000 : Chapter 01
  153. 00:13:16.295 : Chapter 02
  154. 00:32:31.950 : Chapter 03
  155. 00:50:19.516 : Chapter 04
  156. 01:10:24.220 : Chapter 05
  157.  
  158.  
Advertisement
Advertisement
Advertisement
RAW Paste Data Copied
Advertisement