Advertisement
Guest User

mediainfo

a guest
May 10th, 2020
26
0
Never
Not a member of Pastebin yet? Sign Up, it unlocks many cool features!
text 2.73 KB | None | 0 0
  1. General
  2. Complete name : Y:\folder\example2.mp4
  3. Format : MPEG-4
  4. Format profile : Base Media
  5. Codec ID : isom (isom/iso2/avc1/mp41)
  6. File size : 188 MiB
  7. Duration : 24 min 44 s
  8. Overall bit rate mode : Variable
  9. Overall bit rate : 1 062 kb/s
  10. Writing application : Lavf56.25.101
  11.  
  12. Video
  13. ID : 2
  14. Format : AVC
  15. Format/Info : Advanced Video Codec
  16. Format profile : High@L3.1
  17. Format settings : CABAC / 4 Ref Frames
  18. Format settings, CABAC : Yes
  19. Format settings, Reference : 4 frames
  20. Codec ID : avc1
  21. Codec ID/Info : Advanced Video Coding
  22. Duration : 24 min 43 s
  23. Bit rate : 1 000 kb/s
  24. Width : 1 280 pixels
  25. Height : 720 pixels
  26. Display aspect ratio : 16:9
  27. Frame rate mode : Constant
  28. Frame rate : 20.000 FPS
  29. Color space : YUV
  30. Chroma subsampling : 4:2:0
  31. Bit depth : 8 bits
  32. Scan type : Progressive
  33. Bits/(Pixel*Frame) : 0.054
  34. Stream size : 176 MiB (94%)
  35. Writing library : x264 core 142 r2495 6a301b6
  36. Encoding settings : cabac=1 / ref=3 / deblock=1:0:0 / analyse=0x3:0x113 / me=hex / subme=7 / psy=1 / psy_rd=1.00:0.00 / mixed_ref=1 / me_range=16 / chroma_me=1 / trellis=1 / 8x8dct=1 / cqm=0 / deadzone=21,11 / fast_pskip=1 / chroma_qp_offset=-2 / threads=24 / lookahead_threads=4 / sliced_threads=0 / nr=0 / decimate=1 / interlaced=0 / bluray_compat=0 / constrained_intra=0 / bframes=3 / b_pyramid=2 / b_adapt=1 / b_bias=0 / direct=1 / weightb=1 / open_gop=0 / weightp=2 / keyint=100 / keyint_min=10 / scenecut=40 / intra_refresh=0 / rc_lookahead=40 / rc=cbr / mbtree=1 / bitrate=1000 / ratetol=1.0 / qcomp=0.60 / qpmin=0 / qpmax=69 / qpstep=4 / vbv_maxrate=1000 / vbv_bufsize=5000 / nal_hrd=none / filler=0 / ip_ratio=1.40 / aq=1:1.00
  37. Codec configuration box : avcC
  38.  
  39. Audio
  40. ID : 1
  41. Format : AAC LC
  42. Format/Info : Advanced Audio Codec Low Complexity
  43. Codec ID : mp4a-40-2
  44. Duration : 24 min 44 s
  45. Bit rate mode : Variable
  46. Bit rate : 64.0 kb/s
  47. Channel(s) : 1 channel
  48. Channel layout : C
  49. Sampling rate : 48.0 kHz
  50. Frame rate : 46.875 FPS (1024 SPF)
  51. Compression mode : Lossy
  52. Stream size : 11.3 MiB (6%)
  53. Default : Yes
  54. Alternate group : 1
Advertisement
Add Comment
Please, Sign In to add comment
Advertisement