Guest User

Untitled

a guest
Jan 27th, 2017
85
Never
Not a member of Pastebin yet? Sign Up, it unlocks many cool features!
  1. Общее
  2. Уникальный идентификатор : 171630371753581560684982624702673383478 (0x811ECEA6CC97743886A5A40BC88EF036)
  3. Полное имя : E:\Раздача-BDRip\Glubokovodnyi_Gorizont.2016.HDRip-AVC_FreeRutor.mkv
  4. Формат : Matroska
  5. Версия формата : Version 2
  6. Размер файла : 2,50 Гбайт
  7. Продолжительность : 1 ч. 47 м.
  8. Общий поток : 3331 Кбит/сек
  9. Название фильма : Deepwater Horizon (2016) BDRip_FreeRutor_grab777
  10. Дата кодирования : UTC 2017-01-28 01:34:15
  11. Программа кодирования : mkvmerge v5.8.0 ('No Sleep / Pillow') built on Sep 2 2012 15:37:04
  12. Библиотека кодирования : libebml v1.2.3 + libmatroska v1.3.0
  13.  
  14. Видео
  15. Идентификатор : 1
  16. Формат : AVC
  17. Формат/Информация : Advanced Video Codec
  18. Профиль формата : High@L4.1
  19. Параметр CABAC формата : Да
  20. Параметр ReFrames формата : 10 кадров
  21. Идентификатор кодека : V_MPEG4/ISO/AVC
  22. Продолжительность : 1 ч. 47 м.
  23. Битрейт : 2433 Кбит/сек
  24. Ширина : 1024 пикселя
  25. Высота : 428 пикселей
  26. Соотношение сторон : 2,40:1
  27. Режим частоты кадров : Постоянный
  28. Частота кадров : 23,976 кадра/сек
  29. Цветовое пространство : YUV
  30. Субдискретизация насыщенности : 4:2:0
  31. Битовая глубина : 8 бит
  32. Тип развёртки : Прогрессивная
  33. Бит/(Пиксели*Кадры) : 0.232
  34. Размер потока : 1,77 Гбайт (71%)
  35. Заголовок : Video_TorpedoUK
  36. Библиотека кодирования : x264 core 146 r2538 121396c
  37. Настройки программы : cabac=1 / ref=10 / deblock=1:-3:-3 / analyse=0x3:0x133 / me=umh / subme=11 / psy=1 / psy_rd=1.00:0.03 / mixed_ref=1 / me_range=48 / chroma_me=1 / trellis=2 / 8x8dct=1 / cqm=0 / deadzone=21,11 / fast_pskip=0 / chroma_qp_offset=-3 / threads=6 / lookahead_threads=1 / sliced_threads=0 / nr=0 / decimate=0 / interlaced=0 / bluray_compat=0 / constrained_intra=0 / bframes=10 / b_pyramid=2 / b_adapt=2 / b_bias=0 / direct=3 / weightb=1 / open_gop=0 / weightp=2 / keyint=240 / keyint_min=23 / scenecut=40 / intra_refresh=0 / rc_lookahead=40 / rc=2pass / mbtree=0 / bitrate=2433 / ratetol=1.0 / qcomp=0.60 / qpmin=0 / qpmax=69 / qpstep=4 / cplxblur=20.0 / qblur=0.5 / vbv_maxrate=50000 / vbv_bufsize=62500 / nal_hrd=none / filler=0 / ip_ratio=1.40 / pb_ratio=1.30 / aq=1:1.00
  38. Default : Да
  39. Forced : Нет
  40.  
  41. Аудио #1
  42. Идентификатор : 2
  43. Формат : AC-3
  44. Формат/Информация : Audio Coding 3
  45. Расширение режима : CM (complete main)
  46. Параметр Endianness формата : Big
  47. Идентификатор кодека : A_AC3
  48. Продолжительность : 1 ч. 47 м.
  49. Вид битрейта : Постоянный
  50. Битрейт : 448 Кбит/сек
  51. Каналы : 6 каналов
  52. Расположение каналов : Front: L C R, Side: L R, LFE
  53. Частота : 48,0 КГц
  54. Битовая глубина : 16 бит
  55. Метод сжатия : С потерями
  56. Размер потока : 344 Мбайт (13%)
  57. Заголовок : Dub (Лицензия)
  58. Язык : Russian
  59. Default : Да
  60. Forced : Да
  61.  
  62. Аудио #2
  63. Идентификатор : 3
  64. Формат : AC-3
  65. Формат/Информация : Audio Coding 3
  66. Расширение режима : CM (complete main)
  67. Параметр Endianness формата : Big
  68. Идентификатор кодека : A_AC3
  69. Продолжительность : 1 ч. 47 м.
  70. Вид битрейта : Постоянный
  71. Битрейт : 448 Кбит/сек
  72. Каналы : 6 каналов
  73. Расположение каналов : Front: L C R, Side: L R, LFE
  74. Частота : 48,0 КГц
  75. Битовая глубина : 16 бит
  76. Метод сжатия : С потерями
  77. Размер потока : 344 Мбайт (13%)
  78. Заголовок : Original
  79. Язык : English
  80. Default : Нет
  81. Forced : Нет
  82.  
  83. Текст
  84. Идентификатор : 4
  85. Формат : UTF-8
  86. Идентификатор кодека : S_TEXT/UTF8
  87. Идентификатор кодека/Информация : UTF-8 Plain Text
  88. Язык : English
  89. Default : Нет
  90. Forced : Нет
  91.  
  92. Меню
  93. 00:00:00.000 : en:00:00:00.000
  94. 00:07:01.212 : en:00:07:01.212
  95. 00:12:32.627 : en:00:12:32.627
  96. 00:19:34.465 : en:00:19:34.465
  97. 00:27:17.219 : en:00:27:17.219
  98. 00:34:52.632 : en:00:34:52.632
  99. 00:44:29.834 : en:00:44:29.834
  100. 00:48:04.924 : en:00:48:04.924
  101. 00:53:47.599 : en:00:53:47.599
  102. 00:58:05.148 : en:00:58:05.148
  103. 01:05:44.607 : en:01:05:44.607
  104. 01:10:06.869 : en:01:10:06.869
  105. 01:16:02.933 : en:01:16:02.933
  106. 01:20:44.381 : en:01:20:44.381
  107. 01:27:37.669 : en:01:27:37.669
  108. 01:31:37.826 : en:01:31:37.826
RAW Paste Data