Advertisement
Guest User

Untitled

a guest
Jan 7th, 2015
378
0
Never
Not a member of Pastebin yet? Sign Up, it unlocks many cool features!
text 2.80 KB | None | 0 0
  1. General
  2. Complete name : Robbie.Williams-Live.in.Tallinn.2013.XviD.BDRip.avi
  3. Format : AVI
  4. Format/Info : Audio Video Interleave
  5. File size : 1.98 GiB
  6. Duration : 1h 57mn
  7. Overall bit rate : 2 403 Kbps
  8. Movie name : Robbie.Williams-Live.in.Tallinn.2013.XviD.BDRip
  9. Writing application : VirtualDubMod 1.5.10.2 (build 2540/release)
  10. Writing library : VirtualDubMod build 2540/release
  11.  
  12. Video
  13. ID : 0
  14. Format : MPEG-4 Visual
  15. Format profile : Advanced Simple@L5
  16. Format settings, BVOP : 4
  17. Format settings, QPel : No
  18. Format settings, GMC : No warppoints
  19. Format settings, Matrix : Default (MPEG)
  20. Codec ID : XVID
  21. Codec ID/Hint : XviD
  22. Duration : 1h 57mn
  23. Bit rate : 1 944 Kbps
  24. Width : 720 pixels
  25. Height : 400 pixels
  26. Display aspect ratio : 16:9
  27. Frame rate : 29.970 fps
  28. Color space : YUV
  29. Chroma subsampling : 4:2:0
  30. Bit depth : 8 bits
  31. Scan type : Progressive
  32. Compression mode : Lossy
  33. Bits/(Pixel*Frame) : 0.225
  34. Stream size : 1.60 GiB (81%)
  35. Writing library : XviD 64
  36.  
  37. Audio
  38. ID : 1
  39. Format : AC-3
  40. Format/Info : Audio Coding 3
  41. Mode extension : CM (complete main)
  42. Format settings, Endianness : Big
  43. Codec ID : 2000
  44. Duration : 1h 57mn
  45. Bit rate mode : Constant
  46. Bit rate : 448 Kbps
  47. Channel(s) : 6 channels
  48. Channel positions : Front: L C R, Side: L R, LFE
  49. Sampling rate : 48.0 KHz
  50. Bit depth : 16 bits
  51. Compression mode : Lossy
  52. Stream size : 377 MiB (19%)
  53. Alignment : Split accross interleaves
  54. Interleave, duration : 33 ms (1.00 video frame)
  55. Interleave, preload duration : 500 ms
Advertisement
Add Comment
Please, Sign In to add comment
Advertisement