Guest User

[Cleo] Durarara!! x265 S01E01

a guest
Dec 14th, 2017
156
Never
Not a member of Pastebin yet? Sign Up, it unlocks many cool features!
  1. General
  2. Unique ID : 170656667247679815562033967967636001053 (0x806347501CB2015BBAE00DA39C97911D)
  3. Complete name : [Cleo]Durarara_-_01_(Dual Audio_10bit_BD720p_x265).mkv
  4. Format : Matroska
  5. Format version : Version 4 / Version 2
  6. File size : 133 MiB
  7. Duration : 24 min 31 s
  8. Overall bit rate : 759 kb/s
  9. Encoded date : UTC 2017-04-03 06:25:08
  10. Writing application : mkvmerge v9.7.1 ('Pandemonium') 64bit
  11. Writing library : libebml v1.3.4 + libmatroska v1.4.5
  12.  
  13. Video
  14. ID : 1
  15. Format : HEVC
  16. Format/Info : High Efficiency Video Coding
  17. Format profile : Main 10@L3.1@Main
  18. Codec ID : V_MPEGH/ISO/HEVC
  19. Duration : 24 min 31 s
  20. Bit rate : 564 kb/s
  21. Width : 1 280 pixels
  22. Height : 720 pixels
  23. Display aspect ratio : 16:9
  24. Frame rate mode : Constant
  25. Frame rate : 23.976 (24000/1001) FPS
  26. Color space : YUV
  27. Chroma subsampling : 4:2:0
  28. Bit depth : 10 bits
  29. Bits/(Pixel*Frame) : 0.026
  30. Stream size : 98.9 MiB (74%)
  31. Writing library : x265 2.3+17-6e348252e902:[Windows][GCC 5.3.1][64 bit] 10bit
  32. Encoding settings : cpuid=1049087 / frame-threads=5 / numa-pools=8,8 / wpp / no-pmode / no-pme / no-psnr / no-ssim / log-level=2 / input-csp=1 / input-res=1280x720 / interlace=0 / total-frames=35282 / level-idc=0 / high-tier=1 / uhd-bd=0 / ref=3 / no-allow-non-conformance / no-repeat-headers / annexb / no-aud / no-hrd / info / hash=0 / no-temporal-layers / open-gop / min-keyint=23 / keyint=250 / bframes=4 / b-adapt=2 / b-pyramid / bframe-bias=0 / rc-lookahead=20 / lookahead-slices=4 / scenecut=40 / no-intra-refresh / ctu=64 / min-cu-size=8 / no-rect / no-amp / max-tu-size=32 / tu-inter-depth=1 / tu-intra-depth=1 / limit-tu=0 / rdoq-level=0 / dynamic-rd=0.00 / signhide / no-tskip / nr-intra=0 / nr-inter=0 / no-constrained-intra / strong-intra-smoothing / max-merge=2 / limit-refs=3 / no-limit-modes / me=1 / subme=2 / merange=57 / temporal-mvp / weightp / no-weightb / no-analyze-src-pics / deblock=0:0 / sao / no-sao-non-deblock / rd=3 / no-early-skip / rskip / no-fast-intra / no-tskip-fast / no-cu-lossless / no-b-intra / rdpenalty=0 / psy-rd=2.00 / psy-rdoq=0.00 / no-rd-refine / analysis-mode=0 / no-lossless / cbqpoffs=0 / crqpoffs=0 / rc=crf / crf=23.0 / qcomp=0.60 / qpstep=4 / stats-write=0 / stats-read=0 / ipratio=1.40 / pbratio=1.30 / aq-mode=1 / aq-strength=1.00 / cutree / zone-count=0 / no-strict-cbr / qg-size=32 / no-rc-grain / qpmax=69 / qpmin=0 / sar=0 / overscan=0 / videoformat=5 / range=0 / colorprim=2 / transfer=2 / colormatrix=2 / chromaloc=0 / display-window=0 / max-cll=0,0 / min-luma=0 / max-luma=1023 / log2-max-poc-lsb=8 / vui-timing-info / vui-hrd-info / slices=1 / opt-qp-pps / opt-ref-list-length-pps / no-multi-pass-opt-rps / scenecut-bias=0.05 / no-opt-cu-delta-qp / no-aq-motion / no-hdr / no-hdr-optrefine-level=5
  33. Language : English
  34. Default : Yes
  35. Forced : No
  36.  
  37. Audio #1
  38. ID : 2
  39. Format : AAC
  40. Format/Info : Advanced Audio Codec
  41. Format profile : LC
  42. Codec ID : A_AAC-2
  43. Duration : 24 min 31 s
  44. Bit rate : 96.0 kb/s
  45. Channel(s) : 2 channels
  46. Channel positions : Front: L R
  47. Sampling rate : 48.0 kHz
  48. Frame rate : 46.875 FPS (1024 SPF)
  49. Compression mode : Lossy
  50. Delay relative to video : 9 ms
  51. Stream size : 16.9 MiB (13%)
  52. Language : English
  53. Default : Yes
  54. Forced : No
  55.  
  56. Audio #2
  57. ID : 3
  58. Format : AAC
  59. Format/Info : Advanced Audio Codec
  60. Format profile : LC
  61. Codec ID : A_AAC-2
  62. Duration : 24 min 31 s
  63. Bit rate : 96.0 kb/s
  64. Channel(s) : 2 channels
  65. Channel positions : Front: L R
  66. Sampling rate : 48.0 kHz
  67. Frame rate : 46.875 FPS (1024 SPF)
  68. Compression mode : Lossy
  69. Delay relative to video : 9 ms
  70. Stream size : 16.8 MiB (13%)
  71. Language : Japanese
  72. Default : No
  73. Forced : No
  74.  
  75. Text #1
  76. ID : 4
  77. Format : ASS
  78. Codec ID : S_TEXT/ASS
  79. Codec ID/Info : Advanced Sub Station Alpha
  80. Duration : 24 min 26 s
  81. Bit rate : 38 b/s
  82. Count of elements : 120
  83. Compression mode : Lossless
  84. Stream size : 6.90 KiB (0%)
  85. Title : English Lyrics/Signs
  86. Language : English
  87. Default : Yes
  88. Forced : No
  89.  
  90. Text #2
  91. ID : 5
  92. Format : ASS
  93. Codec ID : S_TEXT/ASS
  94. Codec ID/Info : Advanced Sub Station Alpha
  95. Duration : 24 min 26 s
  96. Bit rate : 153 b/s
  97. Count of elements : 491
  98. Compression mode : Lossless
  99. Stream size : 27.4 KiB (0%)
  100. Title : English Subtitles
  101. Language : Japanese
  102. Default : No
  103. Forced : No
RAW Paste Data