SHARE
TWEET

Untitled

a guest Jun 26th, 2019 126 Never
Not a member of Pastebin yet? Sign Up, it unlocks many cool features!
  1. General
  2. Unique ID                                : 238111649575144037283378176095583175354 (0xB322A2B6D71B8444A70672E4E07382BA)
  3. Complete name                            : DARK.S01E01.Secrets.1080p.NF.WEBRip.DD5.1.x264-NTb.mkv
  4. Format                                   : Matroska
  5. Format version                           : Version 4 / Version 2
  6. File size                                : 3.29 GiB
  7. Duration                                 : 51mn 30s
  8. Overall bit rate                         : 9 136 Kbps
  9. Encoded date                             : UTC 2017-12-01 19:13:46
  10. Writing application                      : mkvmerge v15.0.0 ('Duel with the Devil') 64-bit
  11. Writing library                          : libebml v1.3.5 + libmatroska v1.4.5
  12.  
  13. Video
  14. ID                                       : 1
  15. Format                                   : AVC
  16. Format/Info                              : Advanced Video Codec
  17. Format profile                           : High@L4.1
  18. Format settings, CABAC                   : Yes
  19. Format settings, ReFrames                : 4 frames
  20. Codec ID                                 : V_MPEG4/ISO/AVC
  21. Duration                                 : 51mn 30s
  22. Bit rate                                 : 8 688 Kbps
  23. Width                                    : 1 920 pixels
  24. Height                                   : 960 pixels
  25. Display aspect ratio                     : 2.000
  26. Frame rate mode                          : Constant
  27. Frame rate                               : 24.000 fps
  28. Color space                              : YUV
  29. Chroma subsampling                       : 4:2:0
  30. Bit depth                                : 8 bits
  31. Scan type                                : Progressive
  32. Bits/(Pixel*Frame)                       : 0.196
  33. Stream size                              : 3.13 GiB (95%)
  34. Writing library                          : x264 core 152 r2851kMod ba24899
  35. Encoding settings                        : cabac=1 / ref=4 / deblock=1:-3:-3 / analyse=0x3:0x133 / me=umh / subme=10 / psy=1 / fade_compensate=0.00 / psy_rd=1.00:0.00 / mixed_ref=1 / me_range=48 / chroma_me=1 / trellis=2 / 8x8dct=1 / cqm=0 / deadzone=21,11 / fast_pskip=0 / chroma_qp_offset=-2 / threads=48 / lookahead_threads=7 / sliced_threads=0 / nr=0 / decimate=0 / interlaced=0 / bluray_compat=0 / constrained_intra=0 / bframes=8 / b_pyramid=2 / b_adapt=2 / b_bias=0 / direct=3 / weightb=1 / open_gop=0 / weightp=2 / keyint=250 / keyint_min=24 / scenecut=40 / intra_refresh=0 / rc=crf / mbtree=0 / crf=17.0000 / qcomp=0.60 / qpmin=0 / qpmax=69 / qpstep=4 / ip_ratio=1.30 / pb_ratio=1.20 / aq=3:0.80
  36. Language                                 : English
  37. Default                                  : Yes
  38. Forced                                   : No
  39.  
  40. Audio
  41. ID                                       : 2
  42. Format                                   : E-AC-3
  43. Format/Info                              : Audio Coding 3
  44. Format settings, Endianness              : Big
  45. Codec ID                                 : A_EAC3
  46. Duration                                 : 51mn 16s
  47. Bit rate mode                            : Constant
  48. Bit rate                                 : 448 Kbps
  49. Channel(s)                               : 6 channels
  50. Channel positions                        : Front: L C R, Side: L R, LFE
  51. Sampling rate                            : 48.0 KHz
  52. Frame rate                               : 187.500 fps (256 spf)
  53. Compression mode                         : Lossy
  54. Stream size                              : 164 MiB (5%)
  55. Language                                 : German
  56. Default                                  : Yes
  57. Forced                                   : No
  58.  
  59. Text #1
  60. ID                                       : 3
  61. Format                                   : UTF-8
  62. Codec ID                                 : S_TEXT/UTF8
  63. Codec ID/Info                            : UTF-8 Plain Text
  64. Duration                                 : 50mn 57s
  65. Bit rate                                 : 40 bps
  66. Count of elements                        : 468
  67. Stream size                              : 15.0 KiB (0%)
  68. Language                                 : English
  69. Default                                  : No
  70. Forced                                   : No
  71.  
  72. Text #2
  73. ID                                       : 4
  74. Format                                   : UTF-8
  75. Codec ID                                 : S_TEXT/UTF8
  76. Codec ID/Info                            : UTF-8 Plain Text
  77. Duration                                 : 48mn 15s
  78. Bit rate                                 : 62 bps
  79. Count of elements                        : 468
  80. Stream size                              : 22.1 KiB (0%)
  81. Language                                 : Bulgarian
  82. Default                                  : No
  83. Forced                                   : No
  84.  
  85. Text #3
  86. ID                                       : 5
  87. Format                                   : UTF-8
  88. Codec ID                                 : S_TEXT/UTF8
  89. Codec ID/Info                            : UTF-8 Plain Text
  90. Duration                                 : 50mn 57s
  91. Bit rate                                 : 41 bps
  92. Count of elements                        : 441
  93. Stream size                              : 15.5 KiB (0%)
  94. Language                                 : French
  95. Default                                  : No
  96. Forced                                   : No
  97.  
  98. Text #4
  99. ID                                       : 6
  100. Format                                   : UTF-8
  101. Codec ID                                 : S_TEXT/UTF8
  102. Codec ID/Info                            : UTF-8 Plain Text
  103. Duration                                 : 47mn 54s
  104. Bit rate                                 : 49 bps
  105. Count of elements                        : 533
  106. Stream size                              : 17.4 KiB (0%)
  107. Language                                 : German
  108. Default                                  : No
  109. Forced                                   : No
  110.  
  111. Text #5
  112. ID                                       : 7
  113. Format                                   : UTF-8
  114. Codec ID                                 : S_TEXT/UTF8
  115. Codec ID/Info                            : UTF-8 Plain Text
  116. Duration                                 : 50mn 58s
  117. Bit rate                                 : 41 bps
  118. Count of elements                        : 441
  119. Stream size                              : 15.4 KiB (0%)
  120. Language                                 : Italian
  121. Default                                  : No
  122. Forced                                   : No
  123.  
  124. Text #6
  125. ID                                       : 8
  126. Format                                   : UTF-8
  127. Codec ID                                 : S_TEXT/UTF8
  128. Codec ID/Info                            : UTF-8 Plain Text
  129. Duration                                 : 49mn 15s
  130. Bit rate                                 : 41 bps
  131. Count of elements                        : 462
  132. Stream size                              : 14.9 KiB (0%)
  133. Language                                 : Romanian
  134. Default                                  : No
  135. Forced                                   : No
  136.  
  137. Text #7
  138. ID                                       : 9
  139. Format                                   : UTF-8
  140. Codec ID                                 : S_TEXT/UTF8
  141. Codec ID/Info                            : UTF-8 Plain Text
  142. Duration                                 : 50mn 58s
  143. Bit rate                                 : 42 bps
  144. Count of elements                        : 467
  145. Stream size                              : 15.9 KiB (0%)
  146. Language                                 : Spanish
  147. Default                                  : No
  148. Forced                                   : No
  149.  
  150. Text #8
  151. ID                                       : 10
  152. Format                                   : UTF-8
  153. Codec ID                                 : S_TEXT/UTF8
  154. Codec ID/Info                            : UTF-8 Plain Text
  155. Duration                                 : 50mn 58s
  156. Bit rate                                 : 38 bps
  157. Count of elements                        : 464
  158. Stream size                              : 14.3 KiB (0%)
  159. Language                                 : Turkish
  160. Default                                  : No
  161. Forced                                   : No
RAW Paste Data
We use cookies for various purposes including analytics. By continuing to use Pastebin, you agree to our use of cookies as described in the Cookies Policy. OK, I Understand
 
Top