SHARE
TWEET

Untitled

a guest Jun 15th, 2014 293 Never
Not a member of Pastebin yet? Sign Up, it unlocks many cool features!
  1. General
  2. The.Broken.Circle.Breakdown.2012.Blu.Ray.720p.CINEMANIA.mkv
  3. Format : Matroska
  4. Format version : Version 4 / Version 2
  5. File size : 3.13 GiB
  6. Duration : 1h 51mn
  7. Overall bit rate : 4 009 Kbps
  8. Movie name : Release Group CINEMANIA
  9. Encoded date : UTC 2014-06-14 21:17:20
  10. Writing application : mkvmerge v7.0.0 ('Where We Going') 64bit built on Jun 9 2014 15:16:27
  11. Writing library : libebml v1.3.0 + libmatroska v1.4.1
  12.  
  13. Video
  14. ID : 1
  15. Format : AVC
  16. Format/Info : Advanced Video Codec
  17. Format profile : High@L4.1
  18. Format settings, CABAC : Yes
  19. Format settings, ReFrames : 12 frames
  20. Codec ID : V_MPEG4/ISO/AVC
  21. Duration : 1h 51mn
  22. Bit rate : 3 611 Kbps
  23. Width : 1 280 pixels
  24. Height : 544 pixels
  25. Display aspect ratio : 2.35:1
  26. Frame rate mode : Constant
  27. Frame rate : 24.000 fps
  28. Color space : YUV
  29. Chroma subsampling : 4:2:0
  30. Bit depth : 8 bits
  31. Scan type : Progressive
  32. Bits/(Pixel*Frame) : 0.174
  33. Stream size : 2.26 GiB (72%)
  34. Title : Release Group CINEMANIA
  35. Writing library : x264 core 132 r2309 3b1f1f7
  36. Encoding settings : cabac=1 / ref=12 / deblock=1:-3:-3 / analyse=0x3:0x133 / me=tesa / subme=11 / psy=1 / psy_rd=1.00:0.00 / mixed_ref=1 / me_range=16 / chroma_me=1 / trellis=2 / 8x8dct=1 / cqm=0 / deadzone=21,11 / fast_pskip=0 / chroma_qp_offset=-2 / threads=12 / lookahead_threads=2 / sliced_threads=0 / nr=0 / decimate=1 / interlaced=0 / bluray_compat=0 / constrained_intra=0 / bframes=7 / b_pyramid=2 / b_adapt=2 / b_bias=0 / direct=3 / weightb=1 / open_gop=0 / weightp=2 / keyint=250 / keyint_min=24 / scenecut=40 / intra_refresh=0 / rc=crf / mbtree=0 / crf=16.5 / qcomp=0.75 / qpmin=0 / qpmax=69 / qpstep=4 / ip_ratio=1.40 / pb_ratio=1.30 / aq=1:0.75
  37. Default : Yes
  38. Forced : No
  39. Matrix coefficients : BT.709
  40.  
  41. Audio #1
  42. ID : 2
  43. Format : AC-3
  44. Format/Info : Audio Coding 3
  45. Mode extension : CM (complete main)
  46. Format settings, Endianness : Big
  47. Codec ID : A_AC3
  48. Duration : 1h 51mn
  49. Bit rate mode : Constant
  50. Bit rate : 384 Kbps
  51. Channel(s) : 6 channels
  52. Channel positions : Front: L C R, Side: L R, LFE
  53. Sampling rate : 48.0 KHz
  54. Bit depth : 16 bits
  55. Compression mode : Lossy
  56. Stream size : 307 MiB (10%)
  57. Title : Лицензия
  58. Language : Russian
  59. Default : Yes
  60. Forced : Yes
  61.  
  62. Audio #2
  63. ID : 3
  64. Format : AC-3
  65. Format/Info : Audio Coding 3
  66. Mode extension : CM (complete main)
  67. Format settings, Endianness : Big
  68. Codec ID : A_AC3
  69. Duration : 1h 51mn
  70. Bit rate mode : Constant
  71. Bit rate : 640 Kbps
  72. Channel(s) : 6 channels
  73. Channel positions : Front: L C R, Side: L R, LFE
  74. Sampling rate : 48.0 KHz
  75. Bit depth : 16 bits
  76. Compression mode : Lossy
  77. Stream size : 511 MiB (16%)
  78. Language : Dutch
  79. Default : No
  80. Forced : No
  81.  
  82. Text #1
  83. ID : 4
  84. Format : UTF-8
  85. Codec ID : S_TEXT/UTF8
  86. Codec ID/Info : UTF-8 Plain Text
  87. Title : creo140
  88. Language : Russian
  89. Default : No
  90. Forced : No
  91.  
  92. Text #2
  93. ID : 5
  94. Format : UTF-8
  95. Codec ID : S_TEXT/UTF8
  96. Codec ID/Info : UTF-8 Plain Text
  97. Language : English
  98. Default : No
  99. Forced : No
  100.  
  101. Menu
  102. 00:00:00.000 : en:00:00:00.000
  103. 00:09:36.042 : en:00:09:36.042
  104. 00:19:59.333 : en:00:19:59.333
  105. 00:30:24.375 : en:00:30:24.375
  106. 00:39:19.208 : en:00:39:19.208
  107. 00:47:23.083 : en:00:47:23.083
  108. 00:57:40.417 : en:00:57:40.417
  109. 01:09:12.125 : en:01:09:12.125
  110. 01:19:57.625 : en:01:19:57.625
  111. 01:32:44.375 : en:01:32:44.375
  112. 01:43:38.917 : en:01:43:38.917
RAW Paste Data
We use cookies for various purposes including analytics. By continuing to use Pastebin, you agree to our use of cookies as described in the Cookies Policy. OK, I Understand
 
Top