SHARE
TWEET

Ticks.1993.1080p.BluRay.OLIVE-FILMS.Plus.Comm.DTS.x264-MaG

a guest Jun 13th, 2019 21 Never
Not a member of Pastebin yet? Sign Up, it unlocks many cool features!
  1. General
  2. Unique ID                                : 144337722368365224922294432675329424731 (0x6C966F25336530F1B84BEF4F866F3D5B)
  3. Complete name                            : Ticks.1993.1080p.BluRay.OLIVE-FILMS.Plus.Comm.DTS.x264-MaG.mkv
  4. Format                                   : Matroska
  5. Format version                           : Version 4
  6. File size                                : 8.25 GiB
  7. Duration                                 : 1 h 25 min
  8. Overall bit rate                         : 13.8 Mb/s
  9. Encoded date                             : UTC 2018-05-13 14:50:57 / UTC 2018-05-13T03:46:52Z
  10. Writing application                      : mkvmerge v19.0.0 ('Brave Captain') 64-bit
  11. Writing library                          : libebml v1.3.5 + libmatroska v1.4.8 / Lavf57.7.2
  12.  
  13. Video
  14. ID                                       : 1
  15. Format                                   : AVC
  16. Format/Info                              : Advanced Video Codec
  17. Format profile                           : High@L4.1
  18. Format settings                          : CABAC / 4 Ref Frames
  19. Format settings, CABAC                   : Yes
  20. Format settings, Reference frames        : 4 frames
  21. Codec ID                                 : V_MPEG4/ISO/AVC
  22. Duration                                 : 1 h 25 min
  23. Bit rate                                 : 11.8 Mb/s
  24. Width                                    : 1 914 pixels
  25. Height                                   : 1 080 pixels
  26. Display aspect ratio                     : 16:9
  27. Frame rate mode                          : Constant
  28. Frame rate                               : 23.976 (24000/1001) FPS
  29. Color space                              : YUV
  30. Chroma subsampling                       : 4:2:0
  31. Bit depth                                : 8 bits
  32. Scan type                                : Progressive
  33. Bits/(Pixel*Frame)                       : 0.238
  34. Stream size                              : 7.07 GiB (86%)
  35. Writing library                          : x264 core 148 r2708 86b7198
  36. Encoding settings                        : cabac=1 / ref=4 / deblock=1:-3:-3 / analyse=0x3:0x133 / me=umh / subme=9 / psy=1 / psy_rd=1.00:0.00 / mixed_ref=1 / me_range=24 / chroma_me=1 / trellis=2 / 8x8dct=1 / cqm=0 / deadzone=21,11 / fast_pskip=0 / chroma_qp_offset=-2 / threads=12 / lookahead_threads=1 / sliced_threads=0 / nr=0 / decimate=1 / interlaced=0 / bluray_compat=0 / constrained_intra=0 / bframes=6 / b_pyramid=2 / b_adapt=2 / b_bias=0 / direct=3 / weightb=1 / open_gop=0 / weightp=1 / keyint=240 / keyint_min=24 / scenecut=40 / intra_refresh=0 / rc_lookahead=60 / rc=crf / mbtree=1 / crf=20.0 / qcomp=0.60 / qpmin=0 / qpmax=69 / qpstep=4 / vbv_maxrate=62500 / vbv_bufsize=78125 / crf_max=0.0 / nal_hrd=none / filler=0 / ip_ratio=1.40 / aq=1:1.00
  37. Default                                  : Yes
  38. Forced                                   : No
  39. Color range                              : Limited
  40. Color primaries                          : BT.709
  41. Transfer characteristics                 : BT.709
  42. Matrix coefficients                      : BT.709
  43. Statistics Tags Issue                    : mkvmerge v19.0.0 ('Brave Captain') 64-bit 2018-05-13 14:50:57 / mkvmerge v19.0.0 ('Brave Captain') 64-bit 2018-05-13 14:50:57 / UTC 2018-05-13T03:46:52Z
  44. FromStats_BitRate                        : 12078372
  45. FromStats_Duration                       : 01:25:43.138000000
  46. FromStats_FrameCount                     : 123311
  47. FromStats_StreamSize                     : 7765091779
  48.  
  49. Audio #1
  50. ID                                       : 2
  51. Format                                   : DTS
  52. Format/Info                              : Digital Theater Systems
  53. Codec ID                                 : A_DTS
  54. Duration                                 : 1 h 25 min
  55. Bit rate mode                            : Constant
  56. Bit rate                                 : 1 509 kb/s
  57. Channel(s)                               : 2 channels
  58. Channel layout                           : Lt Rt
  59. Sampling rate                            : 48.0 kHz
  60. Frame rate                               : 93.750 FPS (512 SPF)
  61. Bit depth                                : 16 bits
  62. Compression mode                         : Lossy
  63. Stream size                              : 925 MiB (11%)
  64. Title                                    : DTS 2.0 Audio
  65. Language                                 : English
  66. Default                                  : Yes
  67. Forced                                   : No
  68. Statistics Tags Issue                    : mkvmerge v19.0.0 ('Brave Captain') 64-bit 2018-05-13 14:50:57 / mkvmerge v19.0.0 ('Brave Captain') 64-bit 2018-05-13 14:50:57 / UTC 2018-05-13T03:46:52Z
  69. FromStats_BitRate                        : 1509000
  70. FromStats_Duration                       : 01:25:43.136000000
  71. FromStats_FrameCount                     : 482169
  72. FromStats_StreamSize                     : 970124028
  73.  
  74. Audio #2
  75. ID                                       : 3
  76. Format                                   : AC-3
  77. Format/Info                              : Audio Coding 3
  78. Commercial name                          : Dolby Digital
  79. Codec ID                                 : A_AC3
  80. Duration                                 : 1 h 25 min
  81. Bit rate mode                            : Constant
  82. Bit rate                                 : 192 kb/s
  83. Channel(s)                               : 2 channels
  84. Channel layout                           : L R
  85. Sampling rate                            : 48.0 kHz
  86. Frame rate                               : 31.250 FPS (1536 SPF)
  87. Bit depth                                : 16 bits
  88. Compression mode                         : Lossy
  89. Stream size                              : 118 MiB (1%)
  90. Title                                    : Commentary with Director Tony Randel and Actor Clint Howard
  91. Language                                 : English
  92. Service kind                             : Complete Main
  93. Default                                  : No
  94. Forced                                   : No
  95. Statistics Tags Issue                    : mkvmerge v19.0.0 ('Brave Captain') 64-bit 2018-05-13 14:50:57 / mkvmerge v19.0.0 ('Brave Captain') 64-bit 2018-05-13 14:50:57 / UTC 2018-05-13T03:46:52Z
  96. FromStats_BitRate                        : 192000
  97. FromStats_Duration                       : 01:25:44.000000000
  98. FromStats_FrameCount                     : 160750
  99. FromStats_StreamSize                     : 123456000
  100.  
  101. Menu
  102. 00:00:00.000                             : :Chapter 1
  103. 00:09:01.750                             : :Chapter 2
  104. 00:18:03.666                             : :Chapter 3
  105. 00:28:20.199                             : :Chapter 4
  106. 00:38:04.115                             : :Chapter 5
  107. 00:50:39.620                             : :Chapter 6
  108. 00:58:51.445                             : :Chapter 7
  109. 01:14:15.952                             : :Chapter 8
RAW Paste Data
We use cookies for various purposes including analytics. By continuing to use Pastebin, you agree to our use of cookies as described in the Cookies Policy. OK, I Understand
 
Top