Guest User

gfagdgas01e07

a guest
Feb 22nd, 2018
41
Never
Not a member of Pastebin yet? Sign Up, it unlocks many cool features!
  1. General
  2. Unique ID : 240146253355147361243675400383592203450 (0xB4AA7C6CEA315F2ABBAEA5BF47B904BA)
  3. Complete name : [DragsterPS] Violet Evergarden S01E07 [1080p] [Multi-Audio] [Multi-Subs].mkv
  4. Format : Matroska
  5. Format version : Version 4 / Version 2
  6. File size : 816 MiB
  7. Duration : 23 min 57 s
  8. Overall bit rate mode : Variable
  9. Overall bit rate : 4 763 kb/s
  10. Encoded date : UTC 2018-02-22 16:43:26
  11. Writing application : mkvmerge v16.0.0 ('Protest') 32-bit
  12. Writing library : libebml v1.3.5 + libmatroska v1.4.8
  13.  
  14. Video
  15. ID : 1
  16. Format : AVC
  17. Format/Info : Advanced Video Codec
  18. Format profile : Main@L4
  19. Format settings : CABAC / 3 Ref Frames
  20. Format settings, CABAC : Yes
  21. Format settings, RefFrames : 3 frames
  22. Codec ID : V_MPEG4/ISO/AVC
  23. Duration : 23 min 57 s
  24. Bit rate mode : Variable
  25. Bit rate : 3 650 kb/s
  26. Maximum bit rate : 5 475 kb/s
  27. Width : 1 920 pixels
  28. Height : 1 080 pixels
  29. Display aspect ratio : 16:9
  30. Frame rate mode : Constant
  31. Frame rate : 23.976 (24000/1001) FPS
  32. Color space : YUV
  33. Chroma subsampling : 4:2:0
  34. Bit depth : 8 bits
  35. Scan type : Progressive
  36. Bits/(Pixel*Frame) : 0.073
  37. Stream size : 618 MiB (76%)
  38. Writing library : x264 core 148 r2714 2daf636
  39. Encoding settings : cabac=1 / ref=3 / deblock=1:0:0 / analyse=0x1:0x111 / me=umh / subme=10 / psy=1 / psy_rd=1.00:0.00 / mixed_ref=1 / me_range=24 / chroma_me=1 / trellis=2 / 8x8dct=0 / cqm=0 / deadzone=21,11 / fast_pskip=1 / chroma_qp_offset=-2 / threads=8 / lookahead_threads=1 / sliced_threads=0 / nr=0 / decimate=1 / interlaced=0 / bluray_compat=0 / stitchable=1 / constrained_intra=0 / bframes=2 / b_pyramid=0 / b_adapt=2 / b_bias=0 / direct=3 / weightb=1 / open_gop=0 / weightp=2 / keyint=48 / keyint_min=25 / scenecut=0 / intra_refresh=0 / rc_lookahead=48 / rc=2pass / mbtree=1 / bitrate=3650 / ratetol=1.0 / qcomp=0.50 / qpmin=6 / qpmax=51 / qpstep=4 / cplxblur=20.0 / qblur=0.5 / vbv_maxrate=5475 / vbv_bufsize=7300 / nal_hrd=vbr / filler=0 / ip_ratio=1.40 / aq=1:1.00
  40. Default : Yes
  41. Forced : No
  42.  
  43. Audio #1
  44. ID : 2
  45. Format : E-AC-3
  46. Format/Info : Enhanced Audio Coding 3
  47. Codec ID : A_EAC3
  48. Duration : 23 min 57 s
  49. Bit rate mode : Constant
  50. Bit rate : 128 kb/s
  51. Channel(s) : 2 channels
  52. Channel positions : Front: L R
  53. Sampling rate : 48.0 kHz
  54. Frame rate : 187.500 FPS (256 SPF)
  55. Compression mode : Lossy
  56. Stream size : 21.9 MiB (3%)
  57. Title : English
  58. Language : English
  59. Service kind : Complete Main
  60. Default : Yes
  61. Forced : No
  62.  
  63. Audio #2
  64. ID : 3
  65. Format : E-AC-3
  66. Format/Info : Enhanced Audio Coding 3
  67. Codec ID : A_EAC3
  68. Duration : 23 min 57 s
  69. Bit rate mode : Constant
  70. Bit rate : 128 kb/s
  71. Channel(s) : 2 channels
  72. Channel positions : Front: L R
  73. Sampling rate : 48.0 kHz
  74. Frame rate : 187.500 FPS (256 SPF)
  75. Compression mode : Lossy
  76. Stream size : 21.9 MiB (3%)
  77. Title : Castilian
  78. Language : Spanish
  79. Service kind : Complete Main
  80. Default : No
  81. Forced : No
  82.  
  83. Audio #3
  84. ID : 4
  85. Format : E-AC-3
  86. Format/Info : Enhanced Audio Coding 3
  87. Codec ID : A_EAC3
  88. Duration : 23 min 57 s
  89. Bit rate mode : Constant
  90. Bit rate : 128 kb/s
  91. Channel(s) : 2 channels
  92. Channel positions : Front: L R
  93. Sampling rate : 48.0 kHz
  94. Frame rate : 187.500 FPS (256 SPF)
  95. Compression mode : Lossy
  96. Stream size : 21.9 MiB (3%)
  97. Title : Spanish
  98. Language : Spanish
  99. Service kind : Complete Main
  100. Default : No
  101. Forced : No
  102.  
  103. Audio #4
  104. ID : 5
  105. Format : E-AC-3
  106. Format/Info : Enhanced Audio Coding 3
  107. Codec ID : A_EAC3
  108. Duration : 23 min 57 s
  109. Bit rate mode : Constant
  110. Bit rate : 128 kb/s
  111. Channel(s) : 2 channels
  112. Channel positions : Front: L R
  113. Sampling rate : 48.0 kHz
  114. Frame rate : 187.500 FPS (256 SPF)
  115. Compression mode : Lossy
  116. Stream size : 21.9 MiB (3%)
  117. Title : French
  118. Language : French
  119. Service kind : Complete Main
  120. Default : No
  121. Forced : No
  122.  
  123. Audio #5
  124. ID : 6
  125. Format : E-AC-3
  126. Format/Info : Enhanced Audio Coding 3
  127. Codec ID : A_EAC3
  128. Duration : 23 min 57 s
  129. Bit rate mode : Constant
  130. Bit rate : 128 kb/s
  131. Channel(s) : 2 channels
  132. Channel positions : Front: L R
  133. Sampling rate : 48.0 kHz
  134. Frame rate : 187.500 FPS (256 SPF)
  135. Compression mode : Lossy
  136. Stream size : 21.9 MiB (3%)
  137. Title : German
  138. Language : German
  139. Service kind : Complete Main
  140. Default : No
  141. Forced : No
  142.  
  143. Audio #6
  144. ID : 7
  145. Format : E-AC-3
  146. Format/Info : Enhanced Audio Coding 3
  147. Codec ID : A_EAC3
  148. Duration : 23 min 57 s
  149. Bit rate mode : Constant
  150. Bit rate : 128 kb/s
  151. Channel(s) : 2 channels
  152. Channel positions : Front: L R
  153. Sampling rate : 48.0 kHz
  154. Frame rate : 187.500 FPS (256 SPF)
  155. Compression mode : Lossy
  156. Stream size : 21.9 MiB (3%)
  157. Title : Italian
  158. Language : Italian
  159. Service kind : Complete Main
  160. Default : No
  161. Forced : No
  162.  
  163. Audio #7
  164. ID : 8
  165. Format : E-AC-3
  166. Format/Info : Enhanced Audio Coding 3
  167. Codec ID : A_EAC3
  168. Duration : 23 min 57 s
  169. Bit rate mode : Constant
  170. Bit rate : 128 kb/s
  171. Channel(s) : 2 channels
  172. Channel positions : Front: L R
  173. Sampling rate : 48.0 kHz
  174. Frame rate : 187.500 FPS (256 SPF)
  175. Compression mode : Lossy
  176. Stream size : 21.9 MiB (3%)
  177. Title : Brazilian Portuguese
  178. Language : Portuguese
  179. Service kind : Complete Main
  180. Default : No
  181. Forced : No
  182.  
  183. Audio #8
  184. ID : 9
  185. Format : E-AC-3
  186. Format/Info : Enhanced Audio Coding 3
  187. Codec ID : A_EAC3
  188. Duration : 23 min 57 s
  189. Bit rate mode : Constant
  190. Bit rate : 128 kb/s
  191. Channel(s) : 2 channels
  192. Channel positions : Front: L R
  193. Sampling rate : 48.0 kHz
  194. Frame rate : 187.500 FPS (256 SPF)
  195. Compression mode : Lossy
  196. Stream size : 21.9 MiB (3%)
  197. Title : Japanese
  198. Language : Japanese
  199. Service kind : Complete Main
  200. Default : No
  201. Forced : No
  202.  
  203. Audio #9
  204. ID : 10
  205. Format : E-AC-3
  206. Format/Info : Enhanced Audio Coding 3
  207. Codec ID : A_EAC3
  208. Duration : 23 min 57 s
  209. Bit rate mode : Constant
  210. Bit rate : 128 kb/s
  211. Channel(s) : 2 channels
  212. Channel positions : Front: L R
  213. Sampling rate : 48.0 kHz
  214. Frame rate : 187.500 FPS (256 SPF)
  215. Compression mode : Lossy
  216. Stream size : 21.9 MiB (3%)
  217. Title : Japanese (Audio Description)
  218. Language : Japanese
  219. Service kind : Complete Main
  220. Default : No
  221. Forced : No
  222.  
  223. Text #1
  224. ID : 11
  225. Format : UTF-8
  226. Codec ID : S_TEXT/UTF8
  227. Codec ID/Info : UTF-8 Plain Text
  228. Duration : 20 min 24 s
  229. Bit rate : 0 b/s
  230. Count of elements : 2
  231. Stream size : 64.0 Bytes (0%)
  232. Title : English [Forced]
  233. Language : English
  234. Default : Yes
  235. Forced : Yes
  236.  
  237. Text #2
  238. ID : 12
  239. Format : UTF-8
  240. Codec ID : S_TEXT/UTF8
  241. Codec ID/Info : UTF-8 Plain Text
  242. Duration : 23 min 36 s
  243. Bit rate : 53 b/s
  244. Count of elements : 295
  245. Stream size : 9.26 KiB (0%)
  246. Title : English [Full]
  247. Language : English
  248. Default : No
  249. Forced : No
  250.  
  251. Text #3
  252. ID : 13
  253. Format : UTF-8
  254. Codec ID : S_TEXT/UTF8
  255. Codec ID/Info : UTF-8 Plain Text
  256. Duration : 20 min 24 s
  257. Bit rate : 0 b/s
  258. Count of elements : 2
  259. Stream size : 62.0 Bytes (0%)
  260. Title : Castilian [Forced]
  261. Language : Spanish
  262. Default : No
  263. Forced : Yes
  264.  
  265. Text #4
  266. ID : 14
  267. Format : UTF-8
  268. Codec ID : S_TEXT/UTF8
  269. Codec ID/Info : UTF-8 Plain Text
  270. Duration : 23 min 36 s
  271. Bit rate : 53 b/s
  272. Count of elements : 295
  273. Stream size : 9.24 KiB (0%)
  274. Title : Castilian [Full]
  275. Language : Spanish
  276. Default : No
  277. Forced : No
  278.  
  279. Text #5
  280. ID : 15
  281. Format : UTF-8
  282. Codec ID : S_TEXT/UTF8
  283. Codec ID/Info : UTF-8 Plain Text
  284. Duration : 20 min 24 s
  285. Bit rate : 0 b/s
  286. Count of elements : 2
  287. Stream size : 55.0 Bytes (0%)
  288. Title : Spanish [Forced]
  289. Language : Spanish
  290. Default : No
  291. Forced : Yes
  292.  
  293. Text #6
  294. ID : 16
  295. Format : UTF-8
  296. Codec ID : S_TEXT/UTF8
  297. Codec ID/Info : UTF-8 Plain Text
  298. Duration : 23 min 36 s
  299. Bit rate : 55 b/s
  300. Count of elements : 292
  301. Stream size : 9.61 KiB (0%)
  302. Title : Spanish [Full]
  303. Language : Spanish
  304. Default : No
  305. Forced : No
  306.  
  307. Text #7
  308. ID : 17
  309. Format : UTF-8
  310. Codec ID : S_TEXT/UTF8
  311. Codec ID/Info : UTF-8 Plain Text
  312. Duration : 20 min 24 s
  313. Bit rate : 0 b/s
  314. Count of elements : 2
  315. Stream size : 58.0 Bytes (0%)
  316. Title : French [Forced]
  317. Language : French
  318. Default : No
  319. Forced : Yes
  320.  
  321. Text #8
  322. ID : 18
  323. Format : UTF-8
  324. Codec ID : S_TEXT/UTF8
  325. Codec ID/Info : UTF-8 Plain Text
  326. Duration : 23 min 36 s
  327. Bit rate : 52 b/s
  328. Count of elements : 294
  329. Stream size : 9.08 KiB (0%)
  330. Title : French [Full]
  331. Language : French
  332. Default : No
  333. Forced : No
  334.  
  335. Text #9
  336. ID : 19
  337. Format : UTF-8
  338. Codec ID : S_TEXT/UTF8
  339. Codec ID/Info : UTF-8 Plain Text
  340. Duration : 20 min 24 s
  341. Bit rate : 0 b/s
  342. Count of elements : 2
  343. Stream size : 51.0 Bytes (0%)
  344. Title : German [Forced]
  345. Language : German
  346. Default : No
  347. Forced : Yes
  348.  
  349. Text #10
  350. ID : 20
  351. Format : UTF-8
  352. Codec ID : S_TEXT/UTF8
  353. Codec ID/Info : UTF-8 Plain Text
  354. Duration : 23 min 36 s
  355. Bit rate : 53 b/s
  356. Count of elements : 296
  357. Stream size : 9.24 KiB (0%)
  358. Title : German [Full]
  359. Language : German
  360. Default : No
  361. Forced : No
  362.  
  363. Text #11
  364. ID : 21
  365. Format : UTF-8
  366. Codec ID : S_TEXT/UTF8
  367. Codec ID/Info : UTF-8 Plain Text
  368. Duration : 20 min 24 s
  369. Bit rate : 0 b/s
  370. Count of elements : 2
  371. Stream size : 56.0 Bytes (0%)
  372. Title : Italian [Forced]
  373. Language : Italian
  374. Default : No
  375. Forced : Yes
  376.  
  377. Text #12
  378. ID : 22
  379. Format : UTF-8
  380. Codec ID : S_TEXT/UTF8
  381. Codec ID/Info : UTF-8 Plain Text
  382. Duration : 23 min 36 s
  383. Bit rate : 54 b/s
  384. Count of elements : 293
  385. Stream size : 9.46 KiB (0%)
  386. Title : Italian [Full]
  387. Language : Italian
  388. Default : No
  389. Forced : No
  390.  
  391. Text #13
  392. ID : 23
  393. Format : UTF-8
  394. Codec ID : S_TEXT/UTF8
  395. Codec ID/Info : UTF-8 Plain Text
  396. Duration : 23 min 36 s
  397. Bit rate : 52 b/s
  398. Count of elements : 295
  399. Stream size : 9.11 KiB (0%)
  400. Title : Portuguese [Full]
  401. Language : Portuguese
  402. Default : No
  403. Forced : No
  404.  
  405. Text #14
  406. ID : 24
  407. Format : UTF-8
  408. Codec ID : S_TEXT/UTF8
  409. Codec ID/Info : UTF-8 Plain Text
  410. Duration : 20 min 24 s
  411. Bit rate : 0 b/s
  412. Count of elements : 2
  413. Stream size : 53.0 Bytes (0%)
  414. Title : Brazilian Portuguese [Forced]
  415. Language : Portuguese
  416. Default : No
  417. Forced : Yes
  418.  
  419. Text #15
  420. ID : 25
  421. Format : UTF-8
  422. Codec ID : S_TEXT/UTF8
  423. Codec ID/Info : UTF-8 Plain Text
  424. Duration : 23 min 36 s
  425. Bit rate : 53 b/s
  426. Count of elements : 292
  427. Stream size : 9.17 KiB (0%)
  428. Title : Brazilian Portuguese [Full]
  429. Language : Portuguese
  430. Default : No
  431. Forced : No
  432.  
  433. Text #16
  434. ID : 26
  435. Format : UTF-8
  436. Codec ID : S_TEXT/UTF8
  437. Codec ID/Info : UTF-8 Plain Text
  438. Duration : 23 min 36 s
  439. Bit rate : 49 b/s
  440. Count of elements : 294
  441. Stream size : 8.54 KiB (0%)
  442. Title : Polish [Full]
  443. Language : Polish
  444. Default : No
  445. Forced : No
  446.  
  447. Text #17
  448. ID : 27
  449. Format : UTF-8
  450. Codec ID : S_TEXT/UTF8
  451. Codec ID/Info : UTF-8 Plain Text
  452. Duration : 23 min 36 s
  453. Bit rate : 52 b/s
  454. Count of elements : 295
  455. Stream size : 9.09 KiB (0%)
  456. Title : Turkish [Full]
  457. Language : Turkish
  458. Default : No
  459. Forced : No
  460.  
  461. Text #18
  462. ID : 28
  463. Format : UTF-8
  464. Codec ID : S_TEXT/UTF8
  465. Codec ID/Info : UTF-8 Plain Text
  466. Duration : 23 min 36 s
  467. Bit rate : 49 b/s
  468. Count of elements : 290
  469. Stream size : 8.63 KiB (0%)
  470. Title : Swedish [Full]
  471. Language : Swedish
  472. Default : No
  473. Forced : No
  474.  
  475. Text #19
  476. ID : 29
  477. Format : UTF-8
  478. Codec ID : S_TEXT/UTF8
  479. Codec ID/Info : UTF-8 Plain Text
  480. Duration : 23 min 36 s
  481. Bit rate : 53 b/s
  482. Count of elements : 257
  483. Stream size : 9.17 KiB (0%)
  484. Title : Danish [Full]
  485. Language : Danish
  486. Default : No
  487. Forced : No
  488.  
  489. Text #20
  490. ID : 30
  491. Format : UTF-8
  492. Codec ID : S_TEXT/UTF8
  493. Codec ID/Info : UTF-8 Plain Text
  494. Duration : 23 min 36 s
  495. Bit rate : 52 b/s
  496. Count of elements : 258
  497. Stream size : 9.10 KiB (0%)
  498. Title : Finnish [Full]
  499. Language : Finnish
  500. Default : No
  501. Forced : No
  502.  
  503. Text #21
  504. ID : 31
  505. Format : UTF-8
  506. Codec ID : S_TEXT/UTF8
  507. Codec ID/Info : UTF-8 Plain Text
  508. Duration : 23 min 36 s
  509. Bit rate : 47 b/s
  510. Count of elements : 286
  511. Stream size : 8.29 KiB (0%)
  512. Title : Dutch [Full]
  513. Language : Dutch
  514. Default : No
  515. Forced : No
  516.  
  517. Text #22
  518. ID : 32
  519. Format : UTF-8
  520. Codec ID : S_TEXT/UTF8
  521. Codec ID/Info : UTF-8 Plain Text
  522. Duration : 23 min 36 s
  523. Bit rate : 48 b/s
  524. Count of elements : 289
  525. Stream size : 8.36 KiB (0%)
  526. Title : Norwegian [Full]
  527. Language : Norwegian
  528. Default : No
  529. Forced : No
  530.  
  531. Text #23
  532. ID : 33
  533. Format : UTF-8
  534. Codec ID : S_TEXT/UTF8
  535. Codec ID/Info : UTF-8 Plain Text
  536. Duration : 23 min 36 s
  537. Bit rate : 88 b/s
  538. Count of elements : 293
  539. Stream size : 15.3 KiB (0%)
  540. Title : Greek [Full]
  541. Language : Greek
  542. Default : No
  543. Forced : No
  544.  
  545. Text #24
  546. ID : 34
  547. Format : UTF-8
  548. Codec ID : S_TEXT/UTF8
  549. Codec ID/Info : UTF-8 Plain Text
  550. Duration : 23 min 36 s
  551. Bit rate : 86 b/s
  552. Count of elements : 294
  553. Stream size : 15.0 KiB (0%)
  554. Title : Hebrew [Full]
  555. Language : Hebrew
  556. Default : No
  557. Forced : No
  558.  
  559. Text #25
  560. ID : 35
  561. Format : UTF-8
  562. Codec ID : S_TEXT/UTF8
  563. Codec ID/Info : UTF-8 Plain Text
  564. Duration : 23 min 36 s
  565. Bit rate : 88 b/s
  566. Count of elements : 295
  567. Stream size : 15.4 KiB (0%)
  568. Title : Arabic [Full]
  569. Language : Arabic
  570. Default : No
  571. Forced : No
  572.  
  573. Text #26
  574. ID : 36
  575. Format : UTF-8
  576. Codec ID : S_TEXT/UTF8
  577. Codec ID/Info : UTF-8 Plain Text
  578. Duration : 23 min 36 s
  579. Bit rate : 54 b/s
  580. Count of elements : 296
  581. Stream size : 9.46 KiB (0%)
  582. Title : Romanian [Full]
  583. Language : Romanian
  584. Default : No
  585. Forced : No
  586.  
  587. Text #27
  588. ID : 37
  589. Format : UTF-8
  590. Codec ID : S_TEXT/UTF8
  591. Codec ID/Info : UTF-8 Plain Text
  592. Duration : 23 min 36 s
  593. Bit rate : 131 b/s
  594. Count of elements : 295
  595. Stream size : 22.8 KiB (0%)
  596. Title : Thai [Full]
  597. Language : Thai
  598. Default : No
  599. Forced : No
  600.  
  601. Text #28
  602. ID : 38
  603. Format : UTF-8
  604. Codec ID : S_TEXT/UTF8
  605. Codec ID/Info : UTF-8 Plain Text
  606. Duration : 23 min 36 s
  607. Bit rate : 55 b/s
  608. Count of elements : 295
  609. Stream size : 9.63 KiB (0%)
  610. Title : Korean [Full]
  611. Language : Korean
  612. Default : No
  613. Forced : No
  614.  
  615. Text #29
  616. ID : 39
  617. Format : UTF-8
  618. Codec ID : S_TEXT/UTF8
  619. Codec ID/Info : UTF-8 Plain Text
  620. Duration : 23 min 36 s
  621. Bit rate : 48 b/s
  622. Count of elements : 295
  623. Stream size : 8.35 KiB (0%)
  624. Title : Chinese (Simplified) [Full]
  625. Language : Chinese
  626. Default : No
  627. Forced : No
  628.  
  629. Text #30
  630. ID : 40
  631. Format : UTF-8
  632. Codec ID : S_TEXT/UTF8
  633. Codec ID/Info : UTF-8 Plain Text
  634. Duration : 23 min 36 s
  635. Bit rate : 48 b/s
  636. Count of elements : 295
  637. Stream size : 8.46 KiB (0%)
  638. Title : Chinese (Traditional) [Full]
  639. Language : Chinese
  640. Default : No
  641. Forced : No
  642.  
  643. Text #31
  644. ID : 41
  645. Format : UTF-8
  646. Codec ID : S_TEXT/UTF8
  647. Codec ID/Info : UTF-8 Plain Text
  648. Duration : 23 min 34 s
  649. Bit rate : 79 b/s
  650. Count of elements : 365
  651. Stream size : 13.7 KiB (0%)
  652. Title : Japanese [SDH]
  653. Language : Japanese
  654. Default : No
  655. Forced : No
RAW Paste Data