SHARE
TWEET

Untitled

a guest Mar 25th, 2019 72 Never
Not a member of Pastebin yet? Sign Up, it unlocks many cool features!
  1. Общее
  2. Уникальный идентификатор : 199504069884125177697626604308645153933 (0x96171612A004B4998BE19DDA286A0C8D)
  3. Полное имя : D:\Колекция\Ronal.Barbaren.2011.1080p.BluRay.2xRus.Dan.HDCLUB-Skazhutin.mkv
  4. Формат : Matroska
  5. Версия формата : Version 2
  6. Размер файла : 7,17 Гбайт
  7. Продолжительность : 1 ч. 29 м.
  8. Общий поток : 11,5 Мбит/сек
  9. Название фильма : Ronal Barbaren (2011) - Release for HDCLUB by Skazhutin
  10. Дата кодирования : UTC 2012-03-22 10:27:38
  11. Программа кодирования : mkvmerge v5.4.0 ('Piper') built on Mar 10 2012 13:34:39
  12. Библиотека кодирования : libebml v1.2.3 + libmatroska v1.3.0
  13. Обложка : Yes
  14. Attachments : xlog.txt / cover.jpg
  15.  
  16. Видео
  17. Идентификатор : 1
  18. Формат : AVC
  19. Формат/Информация : Advanced Video Codec
  20. Профиль формата : High@L4.1
  21. Настройки формата : CABAC / 5 Ref Frames
  22. Параметр CABAC формата : Да
  23. Параметр RefFrames формата : 5 кадров
  24. Идентификатор кодека : V_MPEG4/ISO/AVC
  25. Продолжительность : 1 ч. 29 м.
  26. Битрейт : 7474 Кбит/сек
  27. Ширина : 1920 пикселей
  28. Высота : 804 пикселя
  29. Соотношение сторон : 2,40:1
  30. Режим частоты кадров : Постоянный
  31. Частота кадров : 23,976 (24000/1001) кадра/сек
  32. Цветовое пространство : YUV
  33. Субдискретизация насыщенности : 4:2:0
  34. Битовая глубина : 8 бит
  35. Тип развёртки : Прогрессивная
  36. Бит/(Пиксели*Кадры) : 0.202
  37. Размер потока : 4,66 Гбайт (65%)
  38. Заголовок : Release for HDCLUB
  39. Библиотека кодирования : x264 core 122 r2184kMod 5c85e0a
  40. Настройки программы : cabac=1 / ref=5 / deblock=1:-1:-1 / analyse=0x3:0x113 / me=umh / subme=11 / psy=1 / fade_compensate=0.00 / psy_rd=0.60:0.50 / mixed_ref=1 / me_range=48 / chroma_me=1 / trellis=2 / 8x8dct=1 / cqm=0 / deadzone=21,11 / fast_pskip=1 / chroma_qp_offset=-4 / threads=12 / sliced_threads=0 / nr=0 / decimate=1 / interlaced=0 / bluray_compat=0 / constrained_intra=0 / bframes=9 / b_pyramid=2 / b_adapt=2 / b_bias=0 / direct=1 / weightb=1 / open_gop=0 / weightp=2 / keyint=250 / keyint_min=23 / scenecut=40 / intra_refresh=0 / rc_lookahead=60 / rc=crf / mbtree=1 / crf=16.0000 / qcomp=0.80 / qpmin=0 / qpmax=69 / qpstep=4 / vbv_maxrate=50000 / vbv_bufsize=62500 / crf_max=0.0 / nal_hrd=none / ip_ratio=1.30 / aq=3:0.90
  41. Язык : Danish
  42. Default : Да
  43. Forced : Нет
  44. Цветовой диапазон : Limited
  45. Коэффициенты матрицы : BT.709
  46.  
  47. Аудио #1
  48. Идентификатор : 2
  49. Формат : DTS
  50. Формат/Информация : Digital Theater Systems
  51. Режим : 16
  52. Параметр Endianness формата : Big
  53. Идентификатор кодека : A_DTS
  54. Продолжительность : 1 ч. 29 м.
  55. Вид битрейта : Постоянный
  56. Битрейт : 1509 Кбит/сек
  57. Каналы : 6 каналов
  58. Расположение каналов : Front: L C R, Side: L R, LFE
  59. Частота : 48,0 КГц
  60. Частота кадров : 93,750 кадра/сек (512 SPF)
  61. Битовая глубина : 24 бит
  62. Метод сжатия : С потерями
  63. Размер потока : 964 Мбайт (13%)
  64. Заголовок : DTS 5.1 @ 1536 kbps - Дублированный
  65. Язык : Russian
  66. Default : Да
  67. Forced : Нет
  68.  
  69. Аудио #2
  70. Идентификатор : 3
  71. Формат : DTS
  72. Формат/Информация : Digital Theater Systems
  73. Режим : 16
  74. Параметр Endianness формата : Big
  75. Идентификатор кодека : A_DTS
  76. Продолжительность : 1 ч. 29 м.
  77. Вид битрейта : Постоянный
  78. Битрейт : 768 Кбит/сек
  79. Каналы : 2 канала
  80. Расположение каналов : Front: L R
  81. Частота : 48,0 КГц
  82. Частота кадров : 93,750 кадра/сек (512 SPF)
  83. Битовая глубина : 24 бит
  84. Метод сжатия : С потерями
  85. Размер потока : 491 Мбайт (7%)
  86. Заголовок : DTS 2.0 @ 768 kbps - Двухголосный, 2x2
  87. Язык : Russian
  88. Default : Нет
  89. Forced : Нет
  90.  
  91. Аудио #3
  92. Идентификатор : 4
  93. Формат : DTS
  94. Формат/Информация : Digital Theater Systems
  95. Режим : 16
  96. Параметр Endianness формата : Big
  97. Идентификатор кодека : A_DTS
  98. Продолжительность : 1 ч. 29 м.
  99. Вид битрейта : Постоянный
  100. Битрейт : 1509 Кбит/сек
  101. Каналы : 6 каналов
  102. Расположение каналов : Front: L C R, Side: L R, LFE
  103. Частота : 48,0 КГц
  104. Частота кадров : 93,750 кадра/сек (512 SPF)
  105. Битовая глубина : 24 бит
  106. Метод сжатия : С потерями
  107. Размер потока : 964 Мбайт (13%)
  108. Заголовок : DTS 5.1 @ 1536 kbps
  109. Язык : Danish
  110. Default : Нет
  111. Forced : Нет
  112.  
  113. Текст #1
  114. Идентификатор : 5
  115. Формат : UTF-8
  116. Идентификатор кодека : S_TEXT/UTF8
  117. Идентификатор кодека/Информация : UTF-8 Plain Text
  118. Язык : Russian
  119. Default : Нет
  120. Forced : Нет
  121.  
  122. Текст #2
  123. Идентификатор : 6
  124. Формат : UTF-8
  125. Идентификатор кодека : S_TEXT/UTF8
  126. Идентификатор кодека/Информация : UTF-8 Plain Text
  127. Язык : English
  128. Default : Нет
  129. Forced : Нет
  130.  
  131. Текст #3
  132. Идентификатор : 7
  133. Формат : UTF-8
  134. Идентификатор кодека : S_TEXT/UTF8
  135. Идентификатор кодека/Информация : UTF-8 Plain Text
  136. Язык : Danish
  137. Default : Нет
  138. Forced : Нет
  139.  
  140. Меню
  141. 00:00:00.000 : en:Chapter 01
  142. 00:09:15.972 : en:Chapter 02
  143. 00:15:16.791 : en:Chapter 03
  144. 00:24:42.856 : en:Chapter 04
  145. 00:31:34.309 : en:Chapter 05
  146. 00:38:47.158 : en:Chapter 06
  147. 00:47:34.351 : en:Chapter 07
  148. 00:56:31.430 : en:Chapter 08
  149. 01:02:02.427 : en:Chapter 09
  150. 01:08:37.905 : en:Chapter 10
  151. 01:16:10.900 : en:Chapter 11
  152. 01:24:47.416 : en:Chapter 12
RAW Paste Data
We use cookies for various purposes including analytics. By continuing to use Pastebin, you agree to our use of cookies as described in the Cookies Policy. OK, I Understand
 
Top