SHARE
TWEET

The Matrix - MediaInfo

Nom1fan Jul 1st, 2018 250 Never
Not a member of Pastebin yet? Sign Up, it unlocks many cool features!
  1. General
  2. Unique ID                                : 236411134871934450470185318689571668592 (0xB1DB20DDC01B2E3B85E194A2AB010270)
  3. Complete name                            : E:\Flash And Coolness\Series And Movies\Movies\HD\The Matrix\The Matrix-1999-HEVC-REMUX-TrueHD 7.1-BigTimeCube.mkv
  4. Format                                   : Matroska
  5. Format version                           : Version 4 / Version 2
  6. File size                                : 50.8 GiB
  7. Duration                                 : 2 h 16 min
  8. Overall bit rate mode                    : Variable
  9. Overall bit rate                         : 53.3 Mb/s
  10. Encoded date                             : UTC 2018-06-03 10:26:20
  11. Writing application                      : mkvmerge v20.0.0 ('I Am The Sun') 64-bit
  12. Writing library                          : libebml v1.3.5 + libmatroska v1.4.8
  13.  
  14. Video
  15. ID                                       : 1
  16. Format                                   : HEVC
  17. Format/Info                              : High Efficiency Video Coding
  18. Commercial name                          : HDR10
  19. Format profile                           : Main 10@L5.1@High
  20. Codec ID                                 : V_MPEGH/ISO/HEVC
  21. Duration                                 : 2 h 16 min
  22. Bit rate                                 : 48.8 Mb/s
  23. Width                                    : 3 840 pixels
  24. Height                                   : 2 160 pixels
  25. Display aspect ratio                     : 16:9
  26. Frame rate mode                          : Constant
  27. Frame rate                               : 23.976 (24000/1001) FPS
  28. Color space                              : YUV
  29. Chroma subsampling                       : 4:2:0 (Type 2)
  30. Bit depth                                : 10 bits
  31. Bits/(Pixel*Frame)                       : 0.246
  32. Stream size                              : 46.5 GiB (92%)
  33. Default                                  : Yes
  34. Forced                                   : No
  35. Color range                              : Limited
  36. Color primaries                          : BT.2020
  37. Transfer characteristics                 : PQ
  38. Matrix coefficients                      : BT.2020 non-constant
  39. Mastering display color primaries        : BT.2020
  40. Mastering display luminance              : min: 0.0020 cd/m2, max: 1000 cd/m2
  41. Maximum Content Light Level              : 992 cd/m2
  42. Maximum Frame-Average Light Level        : 518 cd/m2
  43.  
  44. Audio
  45. ID                                       : 2
  46. Format                                   : TrueHD
  47. Format profile                           : TrueHD+Atmos / TrueHD
  48. Codec ID                                 : A_TRUEHD
  49. Duration                                 : 2 h 16 min
  50. Bit rate mode                            : Variable
  51. Bit rate                                 : 4 420 kb/s
  52. Maximum bit rate                         : 7 794 kb/s
  53. Channel(s)                               : Object Based / 8 channels
  54. Channel positions                        : Object Based / Front: L C R, Side: L R, Back: L R, LFE
  55. Sampling rate                            :  / 48.0 kHz
  56. Frame rate                               : 1 200.000 FPS (40 SPF)
  57. Compression mode                         : Lossless
  58. Stream size                              : 4.21 GiB (8%)
  59. Default                                  : Yes
  60. Forced                                   : No
RAW Paste Data
We use cookies for various purposes including analytics. By continuing to use Pastebin, you agree to our use of cookies as described in the Cookies Policy. OK, I Understand
 
Top