SHARE
TWEET

DJ Rajkec - Devedesete Mix Listing

a guest Jun 8th, 2016 211 Never
Not a member of Pastebin yet? Sign Up, it unlocks many cool features!
  1. TITLE "Devedesete Mix"
  2. PERFORMER "DJ Rajkec"
  3. REM ** Generated by CueMaster v1.6 **
  4. REM Time  : 78:05:00
  5. REM Length: 4685 seconds
  6. REM Year  : 2015
  7. REM Genre : Dance
  8. REM DiscID: 70124b2c
  9. FILE "DJ Rajkec - Devedesete Mix.mp3" MP3
  10.   TRACK 01 AUDIO
  11.     TITLE "Ne znam kad i ne znam gde"
  12.     PERFORMER "May Day"
  13.     PREGAP 00:02:00
  14.     INDEX 01 00:00:00
  15.   TRACK 02 AUDIO
  16.     TITLE "Tek je 12 Sati"
  17.     PERFORMER "E.T."
  18.     INDEX 01 01:03:00
  19.   TRACK 03 AUDIO
  20.     TITLE "Izaberi"
  21.     PERFORMER "Gala feat. Moby Dick"
  22.     INDEX 01 03:46:00
  23.   TRACK 04 AUDIO
  24.     TITLE "U svemu naj naj"
  25.     PERFORMER "Mandi"
  26.     INDEX 01 05:18:00
  27.   TRACK 05 AUDIO
  28.     TITLE "Kada sanjas"
  29.     PERFORMER "Dobar Los Zao"
  30.     INDEX 01 07:26:00
  31.   TRACK 06 AUDIO
  32.     TITLE "Noc je vedra nad Srbijom"
  33.     PERFORMER "Models"
  34.     INDEX 01 09:41:00
  35.   TRACK 07 AUDIO
  36.     TITLE "Sexy Body"
  37.     PERFORMER "Colonia"
  38.     INDEX 01 11:18:00
  39.   TRACK 08 AUDIO
  40.     TITLE "Zar nije te stid"
  41.     PERFORMER "Moby Dick"
  42.     INDEX 01 13:03:00
  43.   TRACK 09 AUDIO
  44.     TITLE "Hajde da ludujemo"
  45.     PERFORMER "Tajci"
  46.     INDEX 01 14:38:00
  47.   TRACK 10 AUDIO
  48.     TITLE "Totalno sam lud"
  49.     PERFORMER "E.T."
  50.     INDEX 01 16:13:00
  51.   TRACK 11 AUDIO
  52.     TITLE "Ti si nesto najbolje"
  53.     PERFORMER "Funky G"
  54.     INDEX 01 19:03:00
  55.   TRACK 12 AUDIO
  56.     TITLE "Nostalgija"
  57.     PERFORMER "Moby Dick"
  58.     INDEX 01 21:33:00
  59.   TRACK 13 AUDIO
  60.     TITLE "Ala je lep ovaj svet"
  61.     PERFORMER "Leontina"
  62.     INDEX 01 23:18:00
  63.   TRACK 14 AUDIO
  64.     TITLE "Bunda"
  65.     PERFORMER "Tap 011"
  66.     INDEX 01 25:13:00
  67.   TRACK 15 AUDIO
  68.     TITLE "Opijum"
  69.     PERFORMER "Aleksandra Perovic"
  70.     INDEX 01 26:03:00
  71.   TRACK 16 AUDIO
  72.     TITLE "Kralj kokaina"
  73.     PERFORMER "Moby Dick"
  74.     INDEX 01 27:33:00
  75.   TRACK 17 AUDIO
  76.     TITLE "Deejay"
  77.     PERFORMER "Romana"
  78.     INDEX 01 28:50:00
  79.   TRACK 18 AUDIO
  80.     TITLE "Osveta"
  81.     PERFORMER "Beat Street"
  82.     INDEX 01 29:58:00
  83.   TRACK 19 AUDIO
  84.     TITLE "Sve oko mene je grijeh"
  85.     PERFORMER "Colonia"
  86.     INDEX 01 32:23:00
  87.   TRACK 20 AUDIO
  88.     TITLE "Palim se na suze"
  89.     PERFORMER "Twins"
  90.     INDEX 01 34:46:00
  91.   TRACK 21 AUDIO
  92.     TITLE "Plakati zauvek"
  93.     PERFORMER "Funky G"
  94.     INDEX 01 36:24:00
  95.   TRACK 22 AUDIO
  96.     TITLE "Varnice"
  97.     PERFORMER "Zeljko Joksimovic"
  98.     INDEX 01 37:51:00
  99.   TRACK 23 AUDIO
  100.     TITLE "Opsesija"
  101.     PERFORMER "Beat Street"
  102.     INDEX 01 39:58:00
  103.   TRACK 24 AUDIO
  104.     TITLE "Nikad (Euro Dance Mix)"
  105.     PERFORMER "Dr. Iggy"
  106.     INDEX 01 42:56:00
  107.   TRACK 25 AUDIO
  108.     TITLE "Jedna od sto"
  109.     PERFORMER "Leontina"
  110.     INDEX 01 45:18:00
  111.   TRACK 26 AUDIO
  112.     TITLE "Samo jedan sat"
  113.     PERFORMER "Beat Street feat. Dragana Mirkovic"
  114.     INDEX 01 46:41:00
  115.   TRACK 27 AUDIO
  116.     TITLE "Ti da bu di bu da"
  117.     PERFORMER "Colonia"
  118.     INDEX 01 48:52:00
  119.   TRACK 28 AUDIO
  120.     TITLE "Samo u snu"
  121.     PERFORMER "Funky G"
  122.     INDEX 01 50:10:00
  123.   TRACK 29 AUDIO
  124.     TITLE "Plavi slon"
  125.     PERFORMER "Twins"
  126.     INDEX 01 52:58:00
  127.   TRACK 30 AUDIO
  128.     TITLE "Supersonican je ritam"
  129.     PERFORMER "Funky G"
  130.     INDEX 01 55:16:00
  131.   TRACK 31 AUDIO
  132.     TITLE "Padrino"
  133.     PERFORMER "Moby Dick"
  134.     INDEX 01 56:38:00
  135.   TRACK 32 AUDIO
  136.     TITLE "Poludeo sam"
  137.     PERFORMER "Moby Dick"
  138.     INDEX 01 58:21:00
  139.   TRACK 33 AUDIO
  140.     TITLE "Voli me"
  141.     PERFORMER "Dr. Iggy"
  142.     INDEX 01 59:43:00
  143.   TRACK 34 AUDIO
  144.     TITLE "Ajkula"
  145.     PERFORMER "Ella B"
  146.     INDEX 01 61:10:00
  147.   TRACK 35 AUDIO
  148.     TITLE "Tvoja sudbina"
  149.     PERFORMER "Ivan Gavrilovic"
  150.     INDEX 01 62:48:00
  151.   TRACK 36 AUDIO
  152.     TITLE "Gace"
  153.     PERFORMER "Tap 011"
  154.     INDEX 01 64:08:00
  155.   TRACK 37 AUDIO
  156.     TITLE "Samo zelim da znam"
  157.     PERFORMER "Dee Monk"
  158.     INDEX 01 65:58:00
  159.   TRACK 38 AUDIO
  160.     TITLE "Kamikaza"
  161.     PERFORMER "Ella B"
  162.     INDEX 01 67:01:00
  163.   TRACK 39 AUDIO
  164.     TITLE "Snage mi ponestaje"
  165.     PERFORMER "Energija"
  166.     INDEX 01 68:13:00
  167.   TRACK 40 AUDIO
  168.     TITLE "Noc sa tobom"
  169.     PERFORMER "May Day"
  170.     INDEX 01 69:58:00
  171.   TRACK 41 AUDIO
  172.     TITLE "Celu noc"
  173.     PERFORMER "Beat Street"
  174.     INDEX 01 71:16:00
  175.   TRACK 42 AUDIO
  176.     TITLE "Gde si ti"
  177.     PERFORMER "Beat Street"
  178.     INDEX 01 72:28:00
  179.   TRACK 43 AUDIO
  180.     TITLE "Pusti me da zivim"
  181.     PERFORMER "Dr. Iggy"
  182.     INDEX 01 74:53:00
  183.   TRACK 44 AUDIO
  184.     TITLE "Dani bez tebe"
  185.     PERFORMER "Non Plus Ultra"
  186.     INDEX 01 76:13:00
RAW Paste Data
We use cookies for various purposes including analytics. By continuing to use Pastebin, you agree to our use of cookies as described in the Cookies Policy. OK, I Understand
 
Top