Guest User

Untitled

a guest
Mar 22nd, 2016
165
Never
Not a member of Pastebin yet? Sign Up, it unlocks many cool features!
  1. ffmpeg -i "C0371.mp4" -c copy -map 0 "C0371.mov"
  2. ffmpeg version N-71102-g1f5d1ee Copyright (c) 2000-2015 the FFmpeg developers
  3. built with gcc 4.9.2 (GCC)
  4. configuration: --enable-gpl --enable-version3 --disable-w32threads --enable-av
  5. isynth --enable-bzlib --enable-fontconfig --enable-frei0r --enable-gnutls --enab
  6. le-iconv --enable-libass --enable-libbluray --enable-libbs2b --enable-libcaca --
  7. enable-libfreetype --enable-libgme --enable-libgsm --enable-libilbc --enable-lib
  8. modplug --enable-libmp3lame --enable-libopencore-amrnb --enable-libopencore-amrw
  9. b --enable-libopenjpeg --enable-libopus --enable-librtmp --enable-libschroedinge
  10. r --enable-libsoxr --enable-libspeex --enable-libtheora --enable-libtwolame --en
  11. able-libvidstab --enable-libvo-aacenc --enable-libvo-amrwbenc --enable-libvorbis
  12. --enable-libvpx --enable-libwavpack --enable-libwebp --enable-libx264 --enable-
  13. libx265 --enable-libxavs --enable-libxvid --enable-lzma --enable-decklink --enab
  14. le-zlib
  15. libavutil 54. 20.101 / 54. 20.101
  16. libavcodec 56. 30.100 / 56. 30.100
  17. libavformat 56. 26.101 / 56. 26.101
  18. libavdevice 56. 4.100 / 56. 4.100
  19. libavfilter 5. 13.101 / 5. 13.101
  20. libswscale 3. 1.101 / 3. 1.101
  21. libswresample 1. 1.100 / 1. 1.100
  22. libpostproc 53. 3.100 / 53. 3.100
  23. Guessed Channel Layout for Input Stream #0.1 : stereo
  24. Input #0, mov,mp4,m4a,3gp,3g2,mj2, from 'C0371.mp4':
  25. Metadata:
  26. major_brand : XAVC
  27. minor_version : 16785407
  28. compatible_brands: XAVCmp42iso2
  29. creation_time : 2016-03-18 19:31:47
  30. Duration: 00:00:01.00, start: 0.000000, bitrate: 50392 kb/s
  31. Stream #0:0(und): Video: h264 (High) (avc1 / 0x31637661), yuv420p(tv), 1920x
  32. 1080 [SAR 1:1 DAR 16:9], 48642 kb/s, 23.98 fps, 23.98 tbr, 24k tbn, 47.95 tbc (d
  33. efault)
  34. Metadata:
  35. creation_time : 2016-03-18 19:31:47
  36. handler_name : Video Media Handler
  37. encoder : AVC Coding
  38. Stream #0:1(und): Audio: pcm_s16be (twos / 0x736F7774), 48000 Hz, 2 channels
  39. , s16, 1536 kb/s (default)
  40. Metadata:
  41. creation_time : 2016-03-18 19:31:47
  42. handler_name : Sound Media Handler
  43. Stream #0:2(und): Data: none (rtmd / 0x646D7472), 196 kb/s (default)
  44. Metadata:
  45. creation_time : 2016-03-18 19:31:47
  46. handler_name : Non-Real Time Metadata
  47. Output #0, mov, to 'C0371.mov':
  48. Metadata:
  49. major_brand : XAVC
  50. minor_version : 16785407
  51. compatible_brands: XAVCmp42iso2
  52. encoder : Lavf56.26.101
  53. Stream #0:0(und): Video: h264 (avc1 / 0x31637661), yuv420p, 1920x1080 [SAR 1
  54. :1 DAR 16:9], q=2-31, 48642 kb/s, 23.98 fps, 23.98 tbr, 24k tbn, 24k tbc (defaul
  55. t)
  56. Metadata:
  57. creation_time : 2016-03-18 19:31:47
  58. handler_name : Video Media Handler
  59. encoder : AVC Coding
  60. Stream #0:1(und): Audio: pcm_s16be (twos / 0x736F7774), 48000 Hz, stereo, 15
  61. 36 kb/s (default)
  62. Metadata:
  63. creation_time : 2016-03-18 19:31:47
  64. handler_name : Sound Media Handler
  65. Stream #0:2(und): Data: none (rtmd / 0x646D7472), 196 kb/s (default)
  66. Metadata:
  67. creation_time : 2016-03-18 19:31:47
  68. handler_name : Non-Real Time Metadata
  69. Stream mapping:
  70. Stream #0:0 -> #0:0 (copy)
  71. Stream #0:1 -> #0:1 (copy)
  72. Stream #0:2 -> #0:2 (copy)
  73. Press [q] to stop, [?] for help
  74. [NULL @ 00000000003ad760] Unknown hldr_type for rtmd / 0x646D7472, writing dummy
  75. values
  76. frame= 24 fps=0.0 q=-1.0 Lsize= 6157kB time=00:00:00.99 bitrate=50665.2kbit
  77. s/s
  78. video:5944kB audio:187kB subtitle:0kB other streams:24kB global headers:0kB muxi
  79. ng overhead: 0.035909%
RAW Paste Data