SHARE
TWEET

Untitled

a guest Nov 8th, 2019 82 Never
Not a member of Pastebin yet? Sign Up, it unlocks many cool features!
  1. General
  2. Unique ID                                : 191161880545208507564613749698085477294 (0x8FD07062171E46FB9DE16AF8A6935BAE)
  3. Complete name                            : Let.It.Snow.2019.1080p.NF.WEB-DL.DDP5.1.H264-CMRG.mkv
  4. Format                                   : Matroska
  5. Format version                           : Version 4
  6. File size                                : 2.78 GiB
  7. Duration                                 : 1 h 33 min
  8. Overall bit rate mode                    : Variable
  9. Overall bit rate                         : 4 256 kb/s
  10. Movie name                               : CMRG
  11. Encoded date                             : UTC 2019-11-08 08:02:17
  12. Writing application                      : mkvmerge v11.0.0 ('Alive') 64bit
  13. Writing library                          : libebml v1.3.4 + libmatroska v1.4.5
  14.  
  15. Video
  16. ID                                       : 1
  17. Format                                   : AVC
  18. Format/Info                              : Advanced Video Codec
  19. Format profile                           : Main@L4
  20. Format settings                          : CABAC / 3 Ref Frames
  21. Format settings, CABAC                   : Yes
  22. Format settings, Reference frames        : 3 frames
  23. Codec ID                                 : V_MPEG4/ISO/AVC
  24. Duration                                 : 1 h 33 min
  25. Bit rate mode                            : Variable
  26. Bit rate                                 : 3 650 kb/s
  27. Maximum bit rate                         : 5 475 kb/s
  28. Width                                    : 1 920 pixels
  29. Height                                   : 1 080 pixels
  30. Display aspect ratio                     : 16:9
  31. Frame rate mode                          : Constant
  32. Frame rate                               : 24.000 FPS
  33. Color space                              : YUV
  34. Chroma subsampling                       : 4:2:0
  35. Bit depth                                : 8 bits
  36. Scan type                                : Progressive
  37. Bits/(Pixel*Frame)                       : 0.073
  38. Stream size                              : 2.36 GiB (85%)
  39. Writing library                          : x264 core 148 r2715 7e75228
  40. Encoding settings                        : cabac=1 / ref=3 / deblock=1:0:0 / analyse=0x1:0x111 / me=umh / subme=10 / psy=1 / psy_rd=1.00:0.00 / mixed_ref=1 / me_range=24 / chroma_me=1 / trellis=2 / 8x8dct=0 / cqm=0 / deadzone=21,11 / fast_pskip=1 / chroma_qp_offset=-2 / threads=8 / lookahead_threads=1 / sliced_threads=0 / nr=0 / decimate=1 / interlaced=0 / bluray_compat=0 / stitchable=1 / constrained_intra=0 / bframes=2 / b_pyramid=0 / b_adapt=2 / b_bias=0 / direct=3 / weightb=1 / open_gop=0 / weightp=2 / keyint=250 / keyint_min=24 / scenecut=0 / intra_refresh=0 / rc_lookahead=48 / rc=2pass / mbtree=1 / bitrate=3650 / ratetol=1.0 / qcomp=0.50 / qpmin=6 / qpmax=51 / qpstep=4 / cplxblur=20.0 / qblur=0.5 / vbv_maxrate=5475 / vbv_bufsize=7300 / nal_hrd=vbr / filler=0 / ip_ratio=1.40 / aq=1:1.00
  41. Default                                  : Yes
  42. Forced                                   : No
  43.  
  44. Audio
  45. ID                                       : 2
  46. Format                                   : E-AC-3
  47. Format/Info                              : Enhanced AC-3
  48. Commercial name                          : Dolby Digital Plus
  49. Codec ID                                 : A_EAC3
  50. Duration                                 : 1 h 33 min
  51. Bit rate mode                            : Constant
  52. Bit rate                                 : 640 kb/s
  53. Channel(s)                               : 6 channels
  54. Channel layout                           : L R C LFE Ls Rs
  55. Sampling rate                            : 48.0 kHz
  56. Frame rate                               : 31.250 FPS (1536 SPF)
  57. Compression mode                         : Lossy
  58. Stream size                              : 428 MiB (15%)
  59. Title                                    : English
  60. Language                                 : English
  61. Service kind                             : Complete Main
  62. Default                                  : Yes
  63. Forced                                   : No
  64.  
  65. Text #1
  66. ID                                       : 3
  67. Format                                   : UTF-8
  68. Codec ID                                 : S_TEXT/UTF8
  69. Codec ID/Info                            : UTF-8 Plain Text
  70. Duration                                 : 1 h 32 min
  71. Bit rate                                 : 73 b/s
  72. Count of elements                        : 1643
  73. Stream size                              : 49.6 KiB (0%)
  74. Title                                    : English
  75. Language                                 : English
  76. Default                                  : Yes
  77. Forced                                   : No
  78.  
  79. Text #2
  80. ID                                       : 4
  81. Format                                   : UTF-8
  82. Codec ID                                 : S_TEXT/UTF8
  83. Codec ID/Info                            : UTF-8 Plain Text
  84. Duration                                 : 1 h 32 min
  85. Bit rate                                 : 50 b/s
  86. Count of elements                        : 1313
  87. Stream size                              : 34.1 KiB (0%)
  88. Title                                    : Castilian
  89. Language                                 : Spanish
  90. Default                                  : No
  91. Forced                                   : No
  92.  
  93. Text #3
  94. ID                                       : 5
  95. Format                                   : UTF-8
  96. Codec ID                                 : S_TEXT/UTF8
  97. Codec ID/Info                            : UTF-8 Plain Text
  98. Duration                                 : 1 h 32 min
  99. Bit rate                                 : 52 b/s
  100. Count of elements                        : 1255
  101. Stream size                              : 35.7 KiB (0%)
  102. Title                                    : Spanish
  103. Language                                 : Spanish
  104. Default                                  : No
  105. Forced                                   : No
  106.  
  107. Text #4
  108. ID                                       : 6
  109. Format                                   : UTF-8
  110. Codec ID                                 : S_TEXT/UTF8
  111. Codec ID/Info                            : UTF-8 Plain Text
  112. Duration                                 : 1 h 32 min
  113. Bit rate                                 : 50 b/s
  114. Count of elements                        : 1233
  115. Stream size                              : 33.8 KiB (0%)
  116. Title                                    : French
  117. Language                                 : French
  118. Default                                  : No
  119. Forced                                   : No
  120.  
  121. Text #5
  122. ID                                       : 7
  123. Format                                   : UTF-8
  124. Codec ID                                 : S_TEXT/UTF8
  125. Codec ID/Info                            : UTF-8 Plain Text
  126. Duration                                 : 1 h 32 min
  127. Bit rate                                 : 56 b/s
  128. Count of elements                        : 1195
  129. Stream size                              : 38.2 KiB (0%)
  130. Title                                    : German
  131. Language                                 : German
  132. Default                                  : No
  133. Forced                                   : No
  134.  
  135. Text #6
  136. ID                                       : 8
  137. Format                                   : UTF-8
  138. Codec ID                                 : S_TEXT/UTF8
  139. Codec ID/Info                            : UTF-8 Plain Text
  140. Duration                                 : 1 h 32 min
  141. Bit rate                                 : 51 b/s
  142. Count of elements                        : 1212
  143. Stream size                              : 34.6 KiB (0%)
  144. Title                                    : Italian
  145. Language                                 : Italian
  146. Default                                  : No
  147. Forced                                   : No
  148.  
  149. Text #7
  150. ID                                       : 9
  151. Format                                   : UTF-8
  152. Codec ID                                 : S_TEXT/UTF8
  153. Codec ID/Info                            : UTF-8 Plain Text
  154. Duration                                 : 1 h 32 min
  155. Bit rate                                 : 56 b/s
  156. Count of elements                        : 1318
  157. Stream size                              : 38.1 KiB (0%)
  158. Title                                    : Portuguese
  159. Language                                 : Portuguese
  160. Default                                  : No
  161. Forced                                   : No
  162.  
  163. Text #8
  164. ID                                       : 10
  165. Format                                   : UTF-8
  166. Codec ID                                 : S_TEXT/UTF8
  167. Codec ID/Info                            : UTF-8 Plain Text
  168. Duration                                 : 1 h 32 min
  169. Bit rate                                 : 56 b/s
  170. Count of elements                        : 1355
  171. Stream size                              : 38.1 KiB (0%)
  172. Title                                    : Brazilian Portuguese
  173. Language                                 : Portuguese
  174. Default                                  : No
  175. Forced                                   : No
  176.  
  177. Text #9
  178. ID                                       : 11
  179. Format                                   : UTF-8
  180. Codec ID                                 : S_TEXT/UTF8
  181. Codec ID/Info                            : UTF-8 Plain Text
  182. Duration                                 : 1 h 32 min
  183. Bit rate                                 : 46 b/s
  184. Count of elements                        : 1295
  185. Stream size                              : 31.8 KiB (0%)
  186. Title                                    : Polish
  187. Language                                 : Polish
  188. Default                                  : No
  189. Forced                                   : No
  190.  
  191. Text #10
  192. ID                                       : 12
  193. Format                                   : UTF-8
  194. Codec ID                                 : S_TEXT/UTF8
  195. Codec ID/Info                            : UTF-8 Plain Text
  196. Duration                                 : 1 h 32 min
  197. Bit rate                                 : 53 b/s
  198. Count of elements                        : 1153
  199. Stream size                              : 36.5 KiB (0%)
  200. Title                                    : Turkish
  201. Language                                 : Turkish
  202. Default                                  : No
  203. Forced                                   : No
  204.  
  205. Text #11
  206. ID                                       : 13
  207. Format                                   : UTF-8
  208. Codec ID                                 : S_TEXT/UTF8
  209. Codec ID/Info                            : UTF-8 Plain Text
  210. Duration                                 : 1 h 32 min
  211. Bit rate                                 : 52 b/s
  212. Count of elements                        : 1138
  213. Stream size                              : 35.4 KiB (0%)
  214. Title                                    : Swedish
  215. Language                                 : Swedish
  216. Default                                  : No
  217. Forced                                   : No
  218.  
  219. Text #12
  220. ID                                       : 14
  221. Format                                   : UTF-8
  222. Codec ID                                 : S_TEXT/UTF8
  223. Codec ID/Info                            : UTF-8 Plain Text
  224. Duration                                 : 1 h 32 min
  225. Bit rate                                 : 55 b/s
  226. Count of elements                        : 999
  227. Stream size                              : 37.5 KiB (0%)
  228. Title                                    : Danish
  229. Language                                 : Danish
  230. Default                                  : No
  231. Forced                                   : No
  232.  
  233. Text #13
  234. ID                                       : 15
  235. Format                                   : UTF-8
  236. Codec ID                                 : S_TEXT/UTF8
  237. Codec ID/Info                            : UTF-8 Plain Text
  238. Duration                                 : 1 h 32 min
  239. Bit rate                                 : 47 b/s
  240. Count of elements                        : 1274
  241. Stream size                              : 32.2 KiB (0%)
  242. Title                                    : Finnish
  243. Language                                 : Finnish
  244. Default                                  : No
  245. Forced                                   : No
  246.  
  247. Text #14
  248. ID                                       : 16
  249. Format                                   : UTF-8
  250. Codec ID                                 : S_TEXT/UTF8
  251. Codec ID/Info                            : UTF-8 Plain Text
  252. Duration                                 : 1 h 32 min
  253. Bit rate                                 : 46 b/s
  254. Count of elements                        : 1039
  255. Stream size                              : 31.1 KiB (0%)
  256. Title                                    : Dutch
  257. Language                                 : Dutch
  258. Default                                  : No
  259. Forced                                   : No
  260.  
  261. Text #15
  262. ID                                       : 17
  263. Format                                   : UTF-8
  264. Codec ID                                 : S_TEXT/UTF8
  265. Codec ID/Info                            : UTF-8 Plain Text
  266. Duration                                 : 1 h 32 min
  267. Bit rate                                 : 52 b/s
  268. Count of elements                        : 1128
  269. Stream size                              : 35.4 KiB (0%)
  270. Title                                    : Norwegian
  271. Language                                 : Norwegian
  272. Default                                  : No
  273. Forced                                   : No
  274.  
  275. Text #16
  276. ID                                       : 18
  277. Format                                   : UTF-8
  278. Codec ID                                 : S_TEXT/UTF8
  279. Codec ID/Info                            : UTF-8 Plain Text
  280. Duration                                 : 1 h 32 min
  281. Bit rate                                 : 82 b/s
  282. Count of elements                        : 1313
  283. Stream size                              : 55.5 KiB (0%)
  284. Title                                    : Russian
  285. Language                                 : Russian
  286. Default                                  : No
  287. Forced                                   : No
  288.  
  289. Text #17
  290. ID                                       : 19
  291. Format                                   : UTF-8
  292. Codec ID                                 : S_TEXT/UTF8
  293. Codec ID/Info                            : UTF-8 Plain Text
  294. Duration                                 : 1 h 32 min
  295. Bit rate                                 : 53 b/s
  296. Count of elements                        : 1001
  297. Stream size                              : 36.0 KiB (0%)
  298. Title                                    : Hungarian
  299. Language                                 : Hungarian
  300. Default                                  : No
  301. Forced                                   : No
  302.  
  303. Text #18
  304. ID                                       : 20
  305. Format                                   : UTF-8
  306. Codec ID                                 : S_TEXT/UTF8
  307. Codec ID/Info                            : UTF-8 Plain Text
  308. Duration                                 : 1 h 32 min
  309. Bit rate                                 : 88 b/s
  310. Count of elements                        : 1339
  311. Stream size                              : 60.1 KiB (0%)
  312. Title                                    : Greek
  313. Language                                 : Greek
  314. Default                                  : No
  315. Forced                                   : No
  316.  
  317. Text #19
  318. ID                                       : 21
  319. Format                                   : UTF-8
  320. Codec ID                                 : S_TEXT/UTF8
  321. Codec ID/Info                            : UTF-8 Plain Text
  322. Duration                                 : 1 h 32 min
  323. Bit rate                                 : 97 b/s
  324. Count of elements                        : 1292
  325. Stream size                              : 65.7 KiB (0%)
  326. Title                                    : Hebrew
  327. Language                                 : Hebrew
  328. Default                                  : No
  329. Forced                                   : No
  330.  
  331. Text #20
  332. ID                                       : 22
  333. Format                                   : UTF-8
  334. Codec ID                                 : S_TEXT/UTF8
  335. Codec ID/Info                            : UTF-8 Plain Text
  336. Duration                                 : 1 h 32 min
  337. Bit rate                                 : 96 b/s
  338. Count of elements                        : 1325
  339. Stream size                              : 65.3 KiB (0%)
  340. Title                                    : Arabic
  341. Language                                 : Arabic
  342. Default                                  : No
  343. Forced                                   : No
  344.  
  345. Text #21
  346. ID                                       : 23
  347. Format                                   : UTF-8
  348. Codec ID                                 : S_TEXT/UTF8
  349. Codec ID/Info                            : UTF-8 Plain Text
  350. Duration                                 : 1 h 32 min
  351. Bit rate                                 : 59 b/s
  352. Count of elements                        : 1268
  353. Stream size                              : 40.4 KiB (0%)
  354. Title                                    : Romanian
  355. Language                                 : Romanian
  356. Default                                  : No
  357. Forced                                   : No
  358.  
  359. Text #22
  360. ID                                       : 24
  361. Format                                   : UTF-8
  362. Codec ID                                 : S_TEXT/UTF8
  363. Codec ID/Info                            : UTF-8 Plain Text
  364. Duration                                 : 1 h 32 min
  365. Bit rate                                 : 49 b/s
  366. Count of elements                        : 1319
  367. Stream size                              : 33.5 KiB (0%)
  368. Title                                    : Czech
  369. Language                                 : Czech
  370. Default                                  : No
  371. Forced                                   : No
  372.  
  373. Text #23
  374. ID                                       : 25
  375. Format                                   : UTF-8
  376. Codec ID                                 : S_TEXT/UTF8
  377. Codec ID/Info                            : UTF-8 Plain Text
  378. Duration                                 : 1 h 32 min
  379. Bit rate                                 : 162 b/s
  380. Count of elements                        : 1348
  381. Stream size                              : 110 KiB (0%)
  382. Title                                    : Hindi
  383. Language                                 : Hindi
  384. Default                                  : No
  385. Forced                                   : No
  386.  
  387. Text #24
  388. ID                                       : 26
  389. Format                                   : UTF-8
  390. Codec ID                                 : S_TEXT/UTF8
  391. Codec ID/Info                            : UTF-8 Plain Text
  392. Duration                                 : 1 h 32 min
  393. Bit rate                                 : 53 b/s
  394. Count of elements                        : 1254
  395. Stream size                              : 36.2 KiB (0%)
  396. Title                                    : Indonesian
  397. Language                                 : Indonesian
  398. Default                                  : No
  399. Forced                                   : No
  400.  
  401. Text #25
  402. ID                                       : 27
  403. Format                                   : UTF-8
  404. Codec ID                                 : S_TEXT/UTF8
  405. Codec ID/Info                            : UTF-8 Plain Text
  406. Duration                                 : 1 h 32 min
  407. Bit rate                                 : 69 b/s
  408. Count of elements                        : 1318
  409. Stream size                              : 47.2 KiB (0%)
  410. Title                                    : Vietnamese
  411. Language                                 : Vietnamese
  412. Default                                  : No
  413. Forced                                   : No
  414.  
  415. Text #26
  416. ID                                       : 28
  417. Format                                   : UTF-8
  418. Codec ID                                 : S_TEXT/UTF8
  419. Codec ID/Info                            : UTF-8 Plain Text
  420. Duration                                 : 1 h 32 min
  421. Bit rate                                 : 149 b/s
  422. Count of elements                        : 1351
  423. Stream size                              : 101 KiB (0%)
  424. Title                                    : Thai
  425. Language                                 : Thai
  426. Default                                  : No
  427. Forced                                   : No
  428.  
  429. Text #27
  430. ID                                       : 29
  431. Format                                   : UTF-8
  432. Codec ID                                 : S_TEXT/UTF8
  433. Codec ID/Info                            : UTF-8 Plain Text
  434. Duration                                 : 1 h 32 min
  435. Bit rate                                 : 70 b/s
  436. Count of elements                        : 1350
  437. Stream size                              : 47.7 KiB (0%)
  438. Title                                    : Korean
  439. Language                                 : Korean
  440. Default                                  : No
  441. Forced                                   : No
  442.  
  443. Text #28
  444. ID                                       : 30
  445. Format                                   : UTF-8
  446. Codec ID                                 : S_TEXT/UTF8
  447. Codec ID/Info                            : UTF-8 Plain Text
  448. Duration                                 : 1 h 32 min
  449. Bit rate                                 : 61 b/s
  450. Count of elements                        : 1473
  451. Stream size                              : 41.9 KiB (0%)
  452. Title                                    : Chinese (Simplified)
  453. Language                                 : Chinese
  454. Default                                  : No
  455. Forced                                   : No
  456.  
  457. Text #29
  458. ID                                       : 31
  459. Format                                   : UTF-8
  460. Codec ID                                 : S_TEXT/UTF8
  461. Codec ID/Info                            : UTF-8 Plain Text
  462. Duration                                 : 1 h 32 min
  463. Bit rate                                 : 56 b/s
  464. Count of elements                        : 1374
  465. Stream size                              : 37.9 KiB (0%)
  466. Title                                    : Chinese (Traditional)
  467. Language                                 : Chinese
  468. Default                                  : No
  469. Forced                                   : No
  470.  
  471. Text #30
  472. ID                                       : 32
  473. Format                                   : UTF-8
  474. Codec ID                                 : S_TEXT/UTF8
  475. Codec ID/Info                            : UTF-8 Plain Text
  476. Duration                                 : 1 h 32 min
  477. Bit rate                                 : 53 b/s
  478. Count of elements                        : 1282
  479. Stream size                              : 36.0 KiB (0%)
  480. Title                                    : Japanese
  481. Language                                 : Japanese
  482. Default                                  : No
  483. Forced                                   : No
RAW Paste Data
We use cookies for various purposes including analytics. By continuing to use Pastebin, you agree to our use of cookies as described in the Cookies Policy. OK, I Understand
 
Top