Guest User

Untitled

a guest
Jan 21st, 2020
85
Never
Not a member of Pastebin yet? Sign Up, it unlocks many cool features!
  1. x264 [info]: frame I:1749 Avg QP:17.51 size: 95355
  2. x264 [info]: frame P:48320 Avg QP:19.07 size: 32111
  3. x264 [info]: frame B:99684 Avg QP:21.83 size: 8174
  4. x264 [info]: consecutive B-frames: 8.9% 11.5% 18.2% 25.0% 15.4% 17.5% 1.4% 1.1% 1.0%
  5. x264 [total]: encoded 149753 frames, 8.18 fps, 3244.63 kb/s
  6.  
  7. General
  8. Unique ID : 307217609332701067246350571461069180484 (0xE71FF5965E546BAB9202E1EA08630E44)
  9. Complete name : F:ФИЛЬМЫРУТОРСокровище Амазонки (Open Matte) WEB-DLRip 720p.mkv
  10. Format : Matroska
  11. Format version : Version 4
  12. File size : 3.29 GiB
  13. Duration : 1 h 44 min
  14. Overall bit rate : 4 522 kb/s
  15. Movie name : Сокровище Амазонки / The Rundown (2003) (Open Matte) - #LORDKILL#
  16. Encoded date : UTC 2020-01-09 16:58:20
  17. Writing application : mkvmerge v32.0.0 ('Astral Progressions') 64-bit
  18. Writing library : libebml v1.3.7 + libmatroska v1.5.0
  19.  
  20. Video
  21. ID : 1
  22. Format : AVC
  23. Format/Info : Advanced Video Codec
  24. Format profile : High@L4.1
  25. Format settings : CABAC / 9 Ref Frames
  26. Format settings, CABAC : Yes
  27. Format settings, Reference : 9 frames
  28. Codec ID : V_MPEG4/ISO/AVC
  29. Duration : 1 h 44 min
  30. Bit rate : 3 245 kb/s
  31. Width : 1 280 pixels
  32. Height : 720 pixels
  33. Display aspect ratio : 16:9
  34. Frame rate mode : Constant
  35. Frame rate : 23.976 (24000/1001) FPS
  36. Color space : YUV
  37. Chroma subsampling : 4:2:0
  38. Bit depth : 8 bits
  39. Scan type : Progressive
  40. Bits/(Pixel*Frame) : 0.147
  41. Stream size : 2.36 GiB (72%)
  42. Writing library : x264 core 146 r2538 121396c
  43. Encoding settings : cabac=1 / ref=9 / deblock=1:-1:-1 / analyse=0x3:0x113 / me=umh / subme=10 / psy=1 / psy_rd=1.00:0.15 / mixed_ref=1 / me_range=32 / chroma_me=1 / trellis=2 / 8x8dct=1 / cqm=0 / deadzone=21,11 / fast_pskip=0 / chroma_qp_offset=-3 / threads=12 / lookahead_threads=2 / sliced_threads=0 / nr=0 / decimate=1 / interlaced=0 / bluray_compat=0 / constrained_intra=0 / bframes=8 / b_pyramid=2 / b_adapt=2 / b_bias=0 / direct=1 / weightb=1 / open_gop=0 / weightp=2 / keyint=240 / keyint_min=23 / scenecut=40 / intra_refresh=0 / rc=crf / mbtree=0 / crf=19.5 / qcomp=0.60 / qpmin=0 / qpmax=69 / qpstep=4 / ip_ratio=1.40 / pb_ratio=1.30 / aq=1:1.00
  44. Language : English
  45. Default : Yes
  46. Forced : No
  47.  
  48. Audio #1
  49. ID : 2
  50. Format : AC-3
  51. Format/Info : Audio Coding 3
  52. Commercial name : Dolby Digital
  53. Codec ID : A_AC3
  54. Duration : 1 h 44 min
  55. Bit rate mode : Constant
  56. Bit rate : 640 kb/s
  57. Channel(s) : 6 channels
  58. Channel layout : L R C LFE Ls Rs
  59. Sampling rate : 48.0 kHz
  60. Frame rate : 31.250 FPS (1536 SPF)
  61. Compression mode : Lossy
  62. Stream size : 477 MiB (14%)
  63. Title : Дубляж
  64. Language : Russian
  65. Service kind : Complete Main
  66. Default : Yes
  67. Forced : No
  68.  
  69. Audio #2
  70. ID : 3
  71. Format : E-AC-3
  72. Format/Info : Enhanced AC-3
  73. Commercial name : Dolby Digital Plus
  74. Codec ID : A_EAC3
  75. Duration : 1 h 44 min
  76. Bit rate mode : Constant
  77. Bit rate : 640 kb/s
  78. Channel(s) : 6 channels
  79. Channel layout : L R C LFE Ls Rs
  80. Sampling rate : 48.0 kHz
  81. Frame rate : 31.250 FPS (1536 SPF)
  82. Compression mode : Lossy
  83. Stream size : 477 MiB (14%)
  84. Language : English
  85. Service kind : Complete Main
  86. Default : No
  87. Forced : No
  88.  
  89. Text #1
  90. ID : 4
  91. Format : UTF-8
  92. Codec ID : S_TEXT/UTF8
  93. Codec ID/Info : UTF-8 Plain Text
  94. Duration : 1 h 36 min
  95. Bit rate : 82 b/s
  96. Count of elements : 1068
  97. Stream size : 58.8 KiB (0%)
  98. Language : Russian
  99. Default : No
  100. Forced : No
  101.  
  102. Text #2
  103. ID : 5
  104. Format : UTF-8
  105. Codec ID : S_TEXT/UTF8
  106. Codec ID/Info : UTF-8 Plain Text
  107. Duration : 1 h 37 min
  108. Bit rate : 55 b/s
  109. Count of elements : 1059
  110. Stream size : 39.7 KiB (0%)
  111. Language : English
  112. Default : No
  113. Forced : No
RAW Paste Data

Adblocker detected! Please consider disabling it...

We've detected AdBlock Plus or some other adblocking software preventing Pastebin.com from fully loading.

We don't have any obnoxious sound, or popup ads, we actively block these annoying types of ads!

Please add Pastebin.com to your ad blocker whitelist or disable your adblocking software.

×