SHARE
TWEET

Human, Space, Time and Human 2018 1080p HDRip AAC H.264

v0danh Jul 18th, 2019 73 Never
Not a member of Pastebin yet? Sign Up, it unlocks many cool features!
  1. General
  2. Complete name                  : human space time and human.mp4
  3. Format                         : MPEG-4
  4. Format profile                 : Base Media
  5. Codec ID                       : isom (isom/iso2/avc1/mp41)
  6. File size                      : 2.45 GiB
  7. Duration                       : 2 h 1 min
  8. Overall bit rate mode          : Constant
  9. Overall bit rate               : 2 894 kb/s
  10. Writing application            : ShanaEncoder
  11.  
  12. Video
  13. ID                             : 1
  14. Format                         : AVC
  15. Format/Info                    : Advanced Video Codec
  16. Format profile                 : High@L4
  17. Format settings                : 1 Ref Frames
  18. Format settings, CABAC         : No
  19. Format settings, Reference fra : 1 frame
  20. Codec ID                       : avc1
  21. Codec ID/Info                  : Advanced Video Coding
  22. Duration                       : 2 h 1 min
  23. Bit rate mode                  : Constant
  24. Bit rate                       : 2 800 kb/s
  25. Width                          : 1 920 pixels
  26. Height                         : 1 080 pixels
  27. Display aspect ratio           : 16:9
  28. Frame rate mode                : Constant
  29. Frame rate                     : 23.976 (24000/1001) FPS
  30. Color space                    : YUV
  31. Chroma subsampling             : 4:2:0
  32. Bit depth                      : 8 bits
  33. Scan type                      : Progressive
  34. Bits/(Pixel*Frame)             : 0.056
  35. Stream size                    : 2.37 GiB (97%)
  36. Codec configuration box        : avcC
  37.  
  38. Audio
  39. ID                             : 2
  40. Format                         : AAC LC
  41. Format/Info                    : Advanced Audio Codec Low Complexity
  42. Codec ID                       : mp4a-40-2
  43. Duration                       : 2 h 1 min
  44. Bit rate mode                  : Constant
  45. Bit rate                       : 96.0 kb/s
  46. Channel(s)                     : 2 channels
  47. Channel layout                 : L R
  48. Sampling rate                  : 48.0 kHz
  49. Frame rate                     : 46.875 FPS (1024 SPF)
  50. Compression mode               : Lossy
  51. Stream size                    : 83.3 MiB (3%)
  52. Default                        : Yes
  53. Alternate group                : 1
RAW Paste Data
We use cookies for various purposes including analytics. By continuing to use Pastebin, you agree to our use of cookies as described in the Cookies Policy. OK, I Understand
Not a member of Pastebin yet?
Sign Up, it unlocks many cool features!
 
Top