TheRealDudeMe

roads

Oct 10th, 2019
193
Never
Not a member of Pastebin yet? Sign Up, it unlocks many cool features!
  1. General
  2. Unique ID : 207802818947921246993313913466805648648 (0x9C555DFDCDC3672BAD9B979DB0CD7D08)
  3. Complete name : Roads.2019.1080p.WEB-DL.DD5.1.H264-CMRG
  4. Format : Matroska
  5. Format version : Version 4
  6. File size : 3.25 GiB
  7. Duration : 1 h 35 min
  8. Overall bit rate : 4 893 kb/s
  9. Movie name : CMRG
  10. Encoded date : UTC 2019-10-09 18:21:33
  11. Writing application : mkvmerge v11.0.0 ('Alive') 64bit
  12. Writing library : libebml v1.3.4 + libmatroska v1.4.5
  13.  
  14. Video
  15. ID : 1
  16. Format : AVC
  17. Format/Info : Advanced Video Codec
  18. Format profile : High@L4
  19. Format settings : CABAC / 5 Ref Frames
  20. Format settings, CABAC : Yes
  21. Format settings, Reference frames : 5 frames
  22. Codec ID : V_MPEG4/ISO/AVC
  23. Duration : 1 h 35 min
  24. Bit rate : 4 507 kb/s
  25. Width : 1 912 pixels
  26. Height : 792 pixels
  27. Display aspect ratio : 2.40:1
  28. Frame rate mode : Constant
  29. Frame rate : 25.000 FPS
  30. Color space : YUV
  31. Chroma subsampling : 4:2:0
  32. Bit depth : 8 bits
  33. Scan type : Progressive
  34. Bits/(Pixel*Frame) : 0.119
  35. Stream size : 2.99 GiB (92%)
  36. Language : English
  37. Default : Yes
  38. Forced : No
  39. Color range : Limited
  40. Color primaries : BT.709
  41. Transfer characteristics : BT.709
  42. Matrix coefficients : BT.709
  43.  
  44. Audio
  45. ID : 2
  46. Format : AC-3
  47. Format/Info : Audio Coding 3
  48. Commercial name : Dolby Digital
  49. Codec ID : A_AC3
  50. Duration : 1 h 35 min
  51. Bit rate mode : Constant
  52. Bit rate : 384 kb/s
  53. Channel(s) : 6 channels
  54. Channel layout : L R C LFE Ls Rs
  55. Sampling rate : 48.0 kHz
  56. Frame rate : 31.250 FPS (1536 SPF)
  57. Bit depth : 16 bits
  58. Compression mode : Lossy
  59. Delay relative to video : -40 ms
  60. Stream size : 261 MiB (8%)
  61. Language : English
  62. Service kind : Complete Main
  63. Default : Yes
  64. Forced : No
  65.  
  66. Menu
  67. 00:00:00.000 : en:1
  68. 00:06:42.000 : en:2
  69. 00:17:13.000 : en:3
  70. 00:27:44.000 : en:4
  71. 00:37:57.000 : en:5
  72. 00:49:56.000 : en:6
  73. 01:02:41.000 : en:7
  74. 01:16:03.000 : en:8
  75. 01:28:02.000 : en:9
RAW Paste Data