Advertisement
sleem4k

command line output

Aug 22nd, 2012
319
Never
Not a member of Pastebin yet? Sign Up, it unlocks many cool features!
  1.  
  2. root@stream:/home# ./rtptest.ffmpeg
  3. [rtp @ 0x25ee140] SDP:
  4. v=0
  5. c=IN IP4 239.0.12.1
  6. m=application 5000 RTP/AVP 33
  7.  
  8. [NULL @ 0x25f2ea0] non-existing SPS 1 referenced in buffering period
  9. [NULL @ 0x25f2ea0] non-existing PPS referenced
  10. [h264 @ 0x25f2ea0] non-existing SPS 1 referenced in buffering period
  11. [h264 @ 0x25f2ea0] non-existing PPS 0 referenced
  12. [h264 @ 0x25f2ea0] decode_slice_header error
  13. [h264 @ 0x25f2ea0] no frame!
  14. [NULL @ 0x2634720] non-existing SPS 1 referenced in buffering period
  15. [NULL @ 0x2634720] non-existing PPS referenced
  16. [h264 @ 0x2634720] non-existing SPS 1 referenced in buffering period
  17. [h264 @ 0x2634720] non-existing PPS 0 referenced
  18. [h264 @ 0x2634720] decode_slice_header error
  19. [h264 @ 0x2634720] no frame!
  20. [h264 @ 0x25f2ea0] non-existing SPS 1 referenced in buffering period
  21. [h264 @ 0x25f2ea0] non-existing PPS referenced
  22. [h264 @ 0x25f2ea0] non-existing SPS 1 referenced in buffering period
  23. [h264 @ 0x25f2ea0] non-existing PPS 0 referenced
  24. [h264 @ 0x25f2ea0] decode_slice_header error
  25. [h264 @ 0x25f2ea0] no frame!
  26. [h264 @ 0x2634720] non-existing SPS 1 referenced in buffering period
  27. [h264 @ 0x2634720] non-existing PPS referenced
  28. [h264 @ 0x2634720] non-existing SPS 1 referenced in buffering period
  29. [h264 @ 0x2634720] non-existing PPS 0 referenced
  30. [h264 @ 0x2634720] decode_slice_header error
  31. [h264 @ 0x2634720] no frame!
  32. [h264 @ 0x2634720] non-existing SPS 1 referenced in buffering period
  33. [h264 @ 0x2634720] non-existing PPS referenced
  34. [h264 @ 0x2634720] non-existing SPS 1 referenced in buffering period
  35. [h264 @ 0x2634720] non-existing PPS 0 referenced
  36. [h264 @ 0x2634720] decode_slice_header error
  37. [h264 @ 0x2634720] no frame!
  38. [h264 @ 0x2634720] non-existing SPS 1 referenced in buffering period
  39. [h264 @ 0x2634720] non-existing PPS referenced
  40. [h264 @ 0x2634720] non-existing SPS 1 referenced in buffering period
  41. [h264 @ 0x2634720] non-existing PPS 0 referenced
  42. [h264 @ 0x2634720] decode_slice_header error
  43. [h264 @ 0x2634720] no frame!
  44. [h264 @ 0x2634720] non-existing SPS 1 referenced in buffering period
  45. [h264 @ 0x2634720] non-existing PPS referenced
  46. [h264 @ 0x2634720] non-existing SPS 1 referenced in buffering period
  47. [h264 @ 0x2634720] non-existing PPS 0 referenced
  48. [h264 @ 0x2634720] decode_slice_header error
  49. [h264 @ 0x2634720] no frame!
  50. [h264 @ 0x25f2ea0] non-existing SPS 1 referenced in buffering period
  51. [h264 @ 0x25f2ea0] non-existing PPS referenced
  52. [h264 @ 0x25f2ea0] non-existing SPS 1 referenced in buffering period
  53. [h264 @ 0x25f2ea0] non-existing PPS 0 referenced
  54. [h264 @ 0x25f2ea0] decode_slice_header error
  55. [h264 @ 0x25f2ea0] no frame!
  56. [h264 @ 0x2634720] non-existing SPS 1 referenced in buffering period
  57. [h264 @ 0x2634720] non-existing PPS referenced
  58. [h264 @ 0x2634720] non-existing SPS 1 referenced in buffering period
  59. [h264 @ 0x2634720] non-existing PPS 0 referenced
  60. [h264 @ 0x2634720] decode_slice_header error
  61. [h264 @ 0x2634720] no frame!
  62. [h264 @ 0x25f2ea0] non-existing SPS 1 referenced in buffering period
  63. [h264 @ 0x25f2ea0] non-existing PPS referenced
  64. [h264 @ 0x25f2ea0] non-existing SPS 1 referenced in buffering period
  65. [h264 @ 0x25f2ea0] non-existing PPS 0 referenced
  66. [h264 @ 0x25f2ea0] decode_slice_header error
  67. [h264 @ 0x25f2ea0] no frame!
  68. [h264 @ 0x2634720] non-existing SPS 1 referenced in buffering period
  69. [h264 @ 0x2634720] non-existing PPS referenced
  70. [h264 @ 0x2634720] non-existing SPS 1 referenced in buffering period
  71. [h264 @ 0x2634720] non-existing PPS 0 referenced
  72. [h264 @ 0x2634720] decode_slice_header error
  73. [h264 @ 0x2634720] no frame!
  74. [h264 @ 0x25f2ea0] non-existing SPS 1 referenced in buffering period
  75. [h264 @ 0x25f2ea0] non-existing PPS referenced
  76. [h264 @ 0x25f2ea0] non-existing SPS 1 referenced in buffering period
  77. [h264 @ 0x25f2ea0] non-existing PPS 0 referenced
  78. [h264 @ 0x25f2ea0] decode_slice_header error
  79. [h264 @ 0x25f2ea0] no frame!
  80. [h264 @ 0x2634720] non-existing SPS 1 referenced in buffering period
  81. [h264 @ 0x2634720] non-existing PPS referenced
  82. [h264 @ 0x2634720] non-existing SPS 1 referenced in buffering period
  83. [h264 @ 0x2634720] non-existing PPS 0 referenced
  84. [h264 @ 0x2634720] decode_slice_header error
  85. [h264 @ 0x2634720] no frame!
  86. [h264 @ 0x25f2ea0] non-existing SPS 1 referenced in buffering period
  87. [h264 @ 0x25f2ea0] non-existing PPS referenced
  88. [h264 @ 0x25f2ea0] non-existing SPS 1 referenced in buffering period
  89. [h264 @ 0x25f2ea0] non-existing PPS 0 referenced
  90. [h264 @ 0x25f2ea0] decode_slice_header error
  91. [h264 @ 0x25f2ea0] no frame!
  92. [h264 @ 0x2634720] non-existing SPS 1 referenced in buffering period
  93. [h264 @ 0x2634720] non-existing PPS referenced
  94. [h264 @ 0x2634720] non-existing SPS 1 referenced in buffering period
  95. [h264 @ 0x2634720] non-existing PPS 0 referenced
  96. [h264 @ 0x2634720] decode_slice_header error
  97. [h264 @ 0x2634720] no frame!
  98. [h264 @ 0x2634720] non-existing SPS 1 referenced in buffering period
  99. [h264 @ 0x2634720] non-existing PPS referenced
  100. [h264 @ 0x2634720] non-existing SPS 1 referenced in buffering period
  101. [h264 @ 0x2634720] non-existing PPS 0 referenced
  102. [h264 @ 0x2634720] decode_slice_header error
  103. [h264 @ 0x2634720] no frame!
  104. [h264 @ 0x25f2ea0] non-existing SPS 1 referenced in buffering period
  105. [h264 @ 0x25f2ea0] non-existing PPS referenced
  106. [h264 @ 0x25f2ea0] non-existing SPS 1 referenced in buffering period
  107. [h264 @ 0x25f2ea0] non-existing PPS 0 referenced
  108. [h264 @ 0x25f2ea0] decode_slice_header error
  109. [h264 @ 0x25f2ea0] no frame!
  110. [h264 @ 0x2634720] non-existing SPS 1 referenced in buffering period
  111. [h264 @ 0x2634720] non-existing PPS referenced
  112. [h264 @ 0x2634720] non-existing SPS 1 referenced in buffering period
  113. [h264 @ 0x2634720] non-existing PPS 0 referenced
  114. [h264 @ 0x2634720] decode_slice_header error
  115. [h264 @ 0x2634720] no frame!
  116. [h264 @ 0x2634720] non-existing SPS 1 referenced in buffering period
  117. [h264 @ 0x2634720] non-existing PPS referenced
  118. [h264 @ 0x2634720] non-existing SPS 1 referenced in buffering period
  119. [h264 @ 0x2634720] non-existing PPS 0 referenced
  120. [h264 @ 0x2634720] decode_slice_header error
  121. [h264 @ 0x2634720] no frame!
  122. [h264 @ 0x25f2ea0] non-existing SPS 1 referenced in buffering period
  123. [h264 @ 0x25f2ea0] non-existing PPS referenced
  124. [h264 @ 0x25f2ea0] non-existing SPS 1 referenced in buffering period
  125. [h264 @ 0x25f2ea0] non-existing PPS 0 referenced
  126. [h264 @ 0x25f2ea0] decode_slice_header error
  127. [h264 @ 0x25f2ea0] no frame!
  128. [h264 @ 0x2634720] non-existing SPS 1 referenced in buffering period
  129. [h264 @ 0x2634720] non-existing PPS referenced
  130. [h264 @ 0x2634720] non-existing SPS 1 referenced in buffering period
  131. [h264 @ 0x2634720] non-existing PPS 0 referenced
  132. [h264 @ 0x2634720] decode_slice_header error
  133. [h264 @ 0x2634720] no frame!
  134. [h264 @ 0x25f2ea0] non-existing SPS 1 referenced in buffering period
  135. [h264 @ 0x25f2ea0] non-existing PPS referenced
  136. [h264 @ 0x25f2ea0] non-existing SPS 1 referenced in buffering period
  137. [h264 @ 0x25f2ea0] non-existing PPS 0 referenced
  138. [h264 @ 0x25f2ea0] decode_slice_header error
  139. [h264 @ 0x25f2ea0] no frame!
  140. [h264 @ 0x25f2ea0] non-existing SPS 1 referenced in buffering period
  141. [h264 @ 0x25f2ea0] non-existing PPS referenced
  142. [h264 @ 0x25f2ea0] non-existing SPS 1 referenced in buffering period
  143. [h264 @ 0x25f2ea0] non-existing PPS 0 referenced
  144. [h264 @ 0x25f2ea0] decode_slice_header error
  145. [h264 @ 0x25f2ea0] no frame!
  146. [h264 @ 0x2634720] non-existing SPS 1 referenced in buffering period
  147. [h264 @ 0x2634720] non-existing PPS referenced
  148. [h264 @ 0x2634720] non-existing SPS 1 referenced in buffering period
  149. [h264 @ 0x2634720] non-existing PPS 0 referenced
  150. [h264 @ 0x2634720] decode_slice_header error
  151. [h264 @ 0x2634720] no frame!
  152. [h264 @ 0x2634720] non-existing SPS 1 referenced in buffering period
  153. [h264 @ 0x2634720] non-existing PPS referenced
  154. [h264 @ 0x2634720] non-existing SPS 1 referenced in buffering period
  155. [h264 @ 0x2634720] non-existing PPS 0 referenced
  156. [h264 @ 0x2634720] decode_slice_header error
  157. [h264 @ 0x2634720] no frame!
  158. [h264 @ 0x25f2ea0] non-existing SPS 1 referenced in buffering period
  159. [h264 @ 0x25f2ea0] non-existing PPS referenced
  160. [h264 @ 0x25f2ea0] non-existing SPS 1 referenced in buffering period
  161. [h264 @ 0x25f2ea0] non-existing PPS 0 referenced
  162. [h264 @ 0x25f2ea0] decode_slice_header error
  163. [h264 @ 0x25f2ea0] no frame!
  164. [h264 @ 0x2634720] non-existing SPS 1 referenced in buffering period
  165. [h264 @ 0x2634720] non-existing PPS referenced
  166. [h264 @ 0x2634720] non-existing SPS 1 referenced in buffering period
  167. [h264 @ 0x2634720] non-existing PPS 0 referenced
  168. [h264 @ 0x2634720] decode_slice_header error
  169. [h264 @ 0x2634720] no frame!
  170. [h264 @ 0x25f2ea0] non-existing SPS 1 referenced in buffering period
  171. [h264 @ 0x25f2ea0] non-existing PPS referenced
  172. [h264 @ 0x25f2ea0] non-existing SPS 1 referenced in buffering period
  173. [h264 @ 0x25f2ea0] non-existing PPS 0 referenced
  174. [h264 @ 0x25f2ea0] decode_slice_header error
  175. [h264 @ 0x25f2ea0] no frame!
  176. [h264 @ 0x2634720] non-existing SPS 1 referenced in buffering period
  177. [h264 @ 0x2634720] non-existing PPS referenced
  178. [h264 @ 0x2634720] non-existing SPS 1 referenced in buffering period
  179. [h264 @ 0x2634720] non-existing PPS 0 referenced
  180. [h264 @ 0x2634720] decode_slice_header error
  181. [h264 @ 0x2634720] no frame!
  182. [h264 @ 0x2634720] non-existing SPS 1 referenced in buffering period
  183. [h264 @ 0x2634720] non-existing PPS referenced
  184. [h264 @ 0x2634720] non-existing SPS 1 referenced in buffering period
  185. [h264 @ 0x2634720] non-existing PPS 0 referenced
  186. [h264 @ 0x2634720] decode_slice_header error
  187. [h264 @ 0x2634720] no frame!
  188. [h264 @ 0x2634720] non-existing SPS 1 referenced in buffering period
  189. [h264 @ 0x2634720] non-existing PPS referenced
  190. [h264 @ 0x2634720] non-existing SPS 1 referenced in buffering period
  191. [h264 @ 0x2634720] non-existing PPS 0 referenced
  192. [h264 @ 0x2634720] decode_slice_header error
  193. [h264 @ 0x2634720] no frame!
  194. [h264 @ 0x25f2ea0] non-existing SPS 1 referenced in buffering period
  195. [h264 @ 0x25f2ea0] non-existing PPS referenced
  196. [h264 @ 0x25f2ea0] non-existing SPS 1 referenced in buffering period
  197. [h264 @ 0x25f2ea0] non-existing PPS 0 referenced
  198. [h264 @ 0x25f2ea0] decode_slice_header error
  199. [h264 @ 0x25f2ea0] no frame!
  200. [h264 @ 0x2634720] non-existing SPS 1 referenced in buffering period
  201. [h264 @ 0x2634720] non-existing PPS referenced
  202. [h264 @ 0x2634720] non-existing SPS 1 referenced in buffering period
  203. [h264 @ 0x2634720] non-existing PPS 0 referenced
  204. [h264 @ 0x2634720] decode_slice_header error
  205. [h264 @ 0x2634720] no frame!
  206. [h264 @ 0x25f2ea0] non-existing SPS 1 referenced in buffering period
  207. [h264 @ 0x25f2ea0] non-existing PPS referenced
  208. [h264 @ 0x25f2ea0] non-existing SPS 1 referenced in buffering period
  209. [h264 @ 0x25f2ea0] non-existing PPS 0 referenced
  210. [h264 @ 0x25f2ea0] decode_slice_header error
  211. [h264 @ 0x25f2ea0] no frame!
  212. [h264 @ 0x2634720] non-existing SPS 1 referenced in buffering period
  213. [h264 @ 0x2634720] non-existing PPS referenced
  214. [h264 @ 0x2634720] non-existing SPS 1 referenced in buffering period
  215. [h264 @ 0x2634720] non-existing PPS 0 referenced
  216. [h264 @ 0x2634720] decode_slice_header error
  217. [h264 @ 0x2634720] no frame!
  218. [h264 @ 0x25f2ea0] non-existing SPS 1 referenced in buffering period
  219. [h264 @ 0x25f2ea0] non-existing PPS referenced
  220. [h264 @ 0x25f2ea0] non-existing SPS 1 referenced in buffering period
  221. [h264 @ 0x25f2ea0] non-existing PPS 0 referenced
  222. [h264 @ 0x25f2ea0] decode_slice_header error
  223. [h264 @ 0x25f2ea0] no frame!
  224. [h264 @ 0x25f2ea0] non-existing SPS 1 referenced in buffering period
  225. [h264 @ 0x25f2ea0] non-existing PPS referenced
  226. [h264 @ 0x25f2ea0] non-existing SPS 1 referenced in buffering period
  227. [h264 @ 0x25f2ea0] non-existing PPS 0 referenced
  228. [h264 @ 0x25f2ea0] decode_slice_header error
  229. [h264 @ 0x25f2ea0] no frame!
  230. [h264 @ 0x2634720] non-existing SPS 1 referenced in buffering period
  231. [h264 @ 0x2634720] non-existing PPS referenced
  232. [h264 @ 0x2634720] non-existing SPS 1 referenced in buffering period
  233. [h264 @ 0x2634720] non-existing PPS 0 referenced
  234. [h264 @ 0x2634720] decode_slice_header error
  235. [h264 @ 0x2634720] no frame!
  236. [h264 @ 0x25f2ea0] non-existing SPS 1 referenced in buffering period
  237. [h264 @ 0x25f2ea0] non-existing PPS referenced
  238. [h264 @ 0x25f2ea0] non-existing SPS 1 referenced in buffering period
  239. [h264 @ 0x25f2ea0] non-existing PPS 0 referenced
  240. [h264 @ 0x25f2ea0] decode_slice_header error
  241. [h264 @ 0x25f2ea0] no frame!
  242. [h264 @ 0x25f2ea0] non-existing SPS 1 referenced in buffering period
  243. [h264 @ 0x25f2ea0] non-existing PPS referenced
  244. [h264 @ 0x25f2ea0] non-existing SPS 1 referenced in buffering period
  245. [h264 @ 0x25f2ea0] non-existing PPS 0 referenced
  246. [h264 @ 0x25f2ea0] decode_slice_header error
  247. [h264 @ 0x25f2ea0] no frame!
  248. [h264 @ 0x2634720] non-existing SPS 1 referenced in buffering period
  249. [h264 @ 0x2634720] non-existing PPS referenced
  250. [h264 @ 0x2634720] non-existing SPS 1 referenced in buffering period
  251. [h264 @ 0x2634720] non-existing PPS 0 referenced
  252. [h264 @ 0x2634720] decode_slice_header error
  253. [h264 @ 0x2634720] no frame!
  254. [h264 @ 0x2634720] non-existing SPS 1 referenced in buffering period
  255. [h264 @ 0x2634720] non-existing PPS referenced
  256. [h264 @ 0x2634720] non-existing SPS 1 referenced in buffering period
  257. [h264 @ 0x2634720] non-existing PPS 0 referenced
  258. [h264 @ 0x2634720] decode_slice_header error
  259. [h264 @ 0x2634720] no frame!
  260. [h264 @ 0x2634720] non-existing SPS 1 referenced in buffering period
  261. [h264 @ 0x2634720] non-existing PPS referenced
  262. [h264 @ 0x2634720] non-existing SPS 1 referenced in buffering period
  263. [h264 @ 0x2634720] non-existing PPS 0 referenced
  264. [h264 @ 0x2634720] decode_slice_header error
  265. [h264 @ 0x2634720] no frame!
  266. [h264 @ 0x25f2ea0] non-existing SPS 1 referenced in buffering period
  267. [h264 @ 0x25f2ea0] non-existing PPS referenced
  268. [h264 @ 0x25f2ea0] non-existing SPS 1 referenced in buffering period
  269. [h264 @ 0x25f2ea0] non-existing PPS 0 referenced
  270. [h264 @ 0x25f2ea0] decode_slice_header error
  271. [h264 @ 0x25f2ea0] no frame!
  272. [h264 @ 0x2634720] non-existing SPS 1 referenced in buffering period
  273. [h264 @ 0x2634720] non-existing PPS referenced
  274. [h264 @ 0x2634720] non-existing SPS 1 referenced in buffering period
  275. [h264 @ 0x2634720] non-existing PPS 0 referenced
  276. [h264 @ 0x2634720] decode_slice_header error
  277. [h264 @ 0x2634720] no frame!
  278. [h264 @ 0x2634720] non-existing SPS 1 referenced in buffering period
  279. [h264 @ 0x2634720] non-existing PPS referenced
  280. [h264 @ 0x2634720] non-existing SPS 1 referenced in buffering period
  281. [h264 @ 0x2634720] non-existing PPS 0 referenced
  282. [h264 @ 0x2634720] decode_slice_header error
  283. [h264 @ 0x2634720] no frame!
  284. [h264 @ 0x25f2ea0] non-existing SPS 1 referenced in buffering period
  285. [h264 @ 0x25f2ea0] non-existing PPS referenced
  286. [h264 @ 0x25f2ea0] non-existing SPS 1 referenced in buffering period
  287. [h264 @ 0x25f2ea0] non-existing PPS 0 referenced
  288. [h264 @ 0x25f2ea0] decode_slice_header error
  289. [h264 @ 0x25f2ea0] no frame!
  290. [h264 @ 0x2634720] non-existing SPS 1 referenced in buffering period
  291. [h264 @ 0x2634720] non-existing PPS referenced
  292. [h264 @ 0x2634720] non-existing SPS 1 referenced in buffering period
  293. [h264 @ 0x2634720] non-existing PPS 0 referenced
  294. [h264 @ 0x2634720] decode_slice_header error
  295. [h264 @ 0x2634720] no frame!
  296. [h264 @ 0x2634720] non-existing SPS 1 referenced in buffering period
  297. [h264 @ 0x2634720] non-existing PPS referenced
  298. [h264 @ 0x2634720] non-existing SPS 1 referenced in buffering period
  299. [h264 @ 0x2634720] non-existing PPS 0 referenced
  300. [h264 @ 0x2634720] decode_slice_header error
  301. [h264 @ 0x2634720] no frame!
  302. [h264 @ 0x25f2ea0] non-existing SPS 1 referenced in buffering period
  303. [h264 @ 0x25f2ea0] non-existing PPS referenced
  304. [h264 @ 0x25f2ea0] non-existing SPS 1 referenced in buffering period
  305. [h264 @ 0x25f2ea0] non-existing PPS 0 referenced
  306. [h264 @ 0x25f2ea0] decode_slice_header error
  307. [h264 @ 0x25f2ea0] no frame!
  308. [h264 @ 0x25f2ea0] non-existing SPS 1 referenced in buffering period
  309. [h264 @ 0x25f2ea0] non-existing PPS referenced
  310. [h264 @ 0x25f2ea0] non-existing SPS 1 referenced in buffering period
  311. [h264 @ 0x25f2ea0] non-existing PPS 0 referenced
  312. [h264 @ 0x25f2ea0] decode_slice_header error
  313. [h264 @ 0x25f2ea0] no frame!
  314. [h264 @ 0x25f2ea0] non-existing SPS 1 referenced in buffering period
  315. [h264 @ 0x25f2ea0] non-existing PPS referenced
  316. [h264 @ 0x25f2ea0] non-existing SPS 1 referenced in buffering period
  317. [h264 @ 0x25f2ea0] non-existing PPS 0 referenced
  318. [h264 @ 0x25f2ea0] decode_slice_header error
  319. [h264 @ 0x25f2ea0] no frame!
  320. [h264 @ 0x25f2ea0] non-existing SPS 1 referenced in buffering period
  321. [h264 @ 0x25f2ea0] non-existing PPS referenced
  322. [h264 @ 0x25f2ea0] non-existing SPS 1 referenced in buffering period
  323. [h264 @ 0x25f2ea0] non-existing PPS 0 referenced
  324. [h264 @ 0x25f2ea0] decode_slice_header error
  325. [h264 @ 0x25f2ea0] no frame!
  326. [h264 @ 0x25f2ea0] non-existing SPS 1 referenced in buffering period
  327. [h264 @ 0x25f2ea0] non-existing PPS referenced
  328. [h264 @ 0x25f2ea0] non-existing SPS 1 referenced in buffering period
  329. [h264 @ 0x25f2ea0] non-existing PPS 0 referenced
  330. [h264 @ 0x25f2ea0] decode_slice_header error
  331. [h264 @ 0x25f2ea0] no frame!
  332. [h264 @ 0x25f2ea0] non-existing SPS 1 referenced in buffering period
  333. [h264 @ 0x25f2ea0] non-existing PPS referenced
  334. [h264 @ 0x25f2ea0] non-existing SPS 1 referenced in buffering period
  335. [h264 @ 0x25f2ea0] non-existing PPS 0 referenced
  336. [h264 @ 0x25f2ea0] decode_slice_header error
  337. [h264 @ 0x25f2ea0] no frame!
  338. [h264 @ 0x25f2ea0] non-existing SPS 1 referenced in buffering period
  339. [h264 @ 0x25f2ea0] non-existing PPS referenced
  340. [h264 @ 0x25f2ea0] non-existing SPS 1 referenced in buffering period
  341. [h264 @ 0x25f2ea0] non-existing PPS 0 referenced
  342. [h264 @ 0x25f2ea0] decode_slice_header error
  343. [h264 @ 0x25f2ea0] no frame!
  344. [h264 @ 0x25f2ea0] non-existing SPS 1 referenced in buffering period
  345. [h264 @ 0x25f2ea0] non-existing PPS referenced
  346. [h264 @ 0x25f2ea0] non-existing SPS 1 referenced in buffering period
  347. [h264 @ 0x25f2ea0] non-existing PPS 0 referenced
  348. [h264 @ 0x25f2ea0] decode_slice_header error
  349. [h264 @ 0x25f2ea0] no frame!
  350. [h264 @ 0x25f2ea0] non-existing SPS 1 referenced in buffering period
  351. [h264 @ 0x25f2ea0] non-existing PPS referenced
  352. [h264 @ 0x25f2ea0] non-existing SPS 1 referenced in buffering period
  353. [h264 @ 0x25f2ea0] non-existing PPS 0 referenced
  354. [h264 @ 0x25f2ea0] decode_slice_header error
  355. [h264 @ 0x25f2ea0] no frame!
  356. [h264 @ 0x25f2ea0] non-existing SPS 1 referenced in buffering period
  357. [h264 @ 0x25f2ea0] non-existing PPS referenced
  358. [h264 @ 0x25f2ea0] non-existing SPS 1 referenced in buffering period
  359. [h264 @ 0x25f2ea0] non-existing PPS 0 referenced
  360. [h264 @ 0x25f2ea0] decode_slice_header error
  361. [h264 @ 0x25f2ea0] no frame!
  362. [h264 @ 0x25f2ea0] non-existing SPS 1 referenced in buffering period
  363. [h264 @ 0x25f2ea0] non-existing PPS referenced
  364. [h264 @ 0x25f2ea0] non-existing SPS 1 referenced in buffering period
  365. [h264 @ 0x25f2ea0] non-existing PPS 0 referenced
  366. [h264 @ 0x25f2ea0] decode_slice_header error
  367. [h264 @ 0x25f2ea0] no frame!
  368. [h264 @ 0x25f2ea0] non-existing SPS 1 referenced in buffering period
  369. [h264 @ 0x25f2ea0] non-existing PPS referenced
  370. [h264 @ 0x25f2ea0] non-existing SPS 1 referenced in buffering period
  371. [h264 @ 0x25f2ea0] non-existing PPS 0 referenced
  372. [h264 @ 0x25f2ea0] decode_slice_header error
  373. [h264 @ 0x25f2ea0] no frame!
  374. [h264 @ 0x25f2ea0] non-existing SPS 1 referenced in buffering period
  375. [h264 @ 0x25f2ea0] non-existing PPS referenced
  376. [h264 @ 0x25f2ea0] non-existing SPS 1 referenced in buffering period
  377. [h264 @ 0x25f2ea0] non-existing PPS 0 referenced
  378. [h264 @ 0x25f2ea0] decode_slice_header error
  379. [h264 @ 0x25f2ea0] no frame!
  380. [h264 @ 0x25f2ea0] non-existing SPS 1 referenced in buffering period
  381. [h264 @ 0x25f2ea0] non-existing PPS referenced
  382. [h264 @ 0x25f2ea0] non-existing SPS 1 referenced in buffering period
  383. [h264 @ 0x25f2ea0] non-existing PPS 0 referenced
  384. [h264 @ 0x25f2ea0] decode_slice_header error
  385. [h264 @ 0x25f2ea0] no frame!
  386. [h264 @ 0x25f2ea0] non-existing SPS 1 referenced in buffering period
  387. [h264 @ 0x25f2ea0] non-existing PPS referenced
  388. [h264 @ 0x25f2ea0] non-existing SPS 1 referenced in buffering period
  389. [h264 @ 0x25f2ea0] non-existing PPS 0 referenced
  390. [h264 @ 0x25f2ea0] decode_slice_header error
  391. [h264 @ 0x25f2ea0] no frame!
  392. [h264 @ 0x2634720] non-existing SPS 1 referenced in buffering period
  393. [h264 @ 0x2634720] non-existing PPS referenced
  394. [h264 @ 0x2634720] non-existing SPS 1 referenced in buffering period
  395. [h264 @ 0x2634720] non-existing PPS 0 referenced
  396. [h264 @ 0x2634720] decode_slice_header error
  397. [h264 @ 0x2634720] no frame!
  398. [h264 @ 0x25f2ea0] non-existing SPS 1 referenced in buffering period
  399. [h264 @ 0x25f2ea0] non-existing PPS referenced
  400. [h264 @ 0x25f2ea0] non-existing SPS 1 referenced in buffering period
  401. [h264 @ 0x25f2ea0] non-existing PPS 0 referenced
  402. [h264 @ 0x25f2ea0] decode_slice_header error
  403. [h264 @ 0x25f2ea0] no frame!
  404. [h264 @ 0x25f2ea0] non-existing SPS 1 referenced in buffering period
  405. [h264 @ 0x25f2ea0] non-existing PPS referenced
  406. [h264 @ 0x25f2ea0] non-existing SPS 1 referenced in buffering period
  407. [h264 @ 0x25f2ea0] non-existing PPS 0 referenced
  408. [h264 @ 0x25f2ea0] decode_slice_header error
  409. [h264 @ 0x25f2ea0] no frame!
  410. [h264 @ 0x25f2ea0] non-existing SPS 1 referenced in buffering period
  411. [h264 @ 0x25f2ea0] non-existing PPS referenced
  412. [h264 @ 0x25f2ea0] non-existing SPS 1 referenced in buffering period
  413. [h264 @ 0x25f2ea0] non-existing PPS 0 referenced
  414. [h264 @ 0x25f2ea0] decode_slice_header error
  415. [h264 @ 0x25f2ea0] no frame!
  416. [h264 @ 0x25f2ea0] non-existing SPS 1 referenced in buffering period
  417. [h264 @ 0x25f2ea0] non-existing PPS referenced
  418. [h264 @ 0x25f2ea0] non-existing SPS 1 referenced in buffering period
  419. [h264 @ 0x25f2ea0] non-existing PPS 0 referenced
  420. [h264 @ 0x25f2ea0] decode_slice_header error
  421. [h264 @ 0x25f2ea0] no frame!
  422. [h264 @ 0x25f2ea0] non-existing SPS 1 referenced in buffering period
  423. [h264 @ 0x25f2ea0] non-existing PPS referenced
  424. [h264 @ 0x25f2ea0] non-existing SPS 1 referenced in buffering period
  425. [h264 @ 0x25f2ea0] non-existing PPS 0 referenced
  426. [h264 @ 0x25f2ea0] decode_slice_header error
  427. [h264 @ 0x25f2ea0] no frame!
  428. [h264 @ 0x2634720] mmco: unref short failure
  429. Last message repeated 1 times
  430. [h264 @ 0x25f2ea0] non-existing SPS 1 referenced in buffering period
  431. [h264 @ 0x25f2ea0] non-existing PPS referenced
  432. [h264 @ 0x25f2ea0] non-existing SPS 1 referenced in buffering period
  433. [h264 @ 0x25f2ea0] non-existing PPS 0 referenced
  434. [h264 @ 0x25f2ea0] decode_slice_header error
  435. [h264 @ 0x25f2ea0] no frame!
  436. [h264 @ 0x25f2ea0] non-existing SPS 1 referenced in buffering period
  437. [h264 @ 0x25f2ea0] non-existing PPS referenced
  438. [h264 @ 0x25f2ea0] non-existing SPS 1 referenced in buffering period
  439. [h264 @ 0x25f2ea0] non-existing PPS 0 referenced
  440. [h264 @ 0x25f2ea0] decode_slice_header error
  441. [h264 @ 0x25f2ea0] no frame!
  442. [h264 @ 0x2634720] mmco: unref short failure
  443. Last message repeated 1 times
  444. [h264 @ 0x2634720] Increasing reorder buffer to 1
  445. [h264 @ 0x2634720] Increasing reorder buffer to 2
  446. [h264 @ 0x25f2ea0] non-existing SPS 1 referenced in buffering period
  447. [h264 @ 0x25f2ea0] non-existing PPS referenced
  448. [h264 @ 0x25f2ea0] non-existing SPS 1 referenced in buffering period
  449. [h264 @ 0x25f2ea0] non-existing PPS 0 referenced
  450. [h264 @ 0x25f2ea0] decode_slice_header error
  451. [h264 @ 0x25f2ea0] no frame!
  452. [h264 @ 0x25f2ea0] mmco: unref short failure
  453. Last message repeated 1 times
  454. [h264 @ 0x2634720] mmco: unref short failure
  455. Last message repeated 1 times
  456. [h264 @ 0x25f2ea0] mmco: unref short failure
  457. Last message repeated 1 times
  458. [h264 @ 0x25f2ea0] Increasing reorder buffer to 1
  459. [h264 @ 0x25f2ea0] Increasing reorder buffer to 2
  460. [h264 @ 0x25f2ea0] mmco: unref short failure
  461. Last message repeated 1 times
  462. [rtp @ 0x25ee140] max_analyze_duration 5000000 reached at 5016000
  463. [rtp @ 0x25ee140] Estimating duration from bitrate, this may be inaccurate
  464. Input #0, rtp, from 'rtp://239.0.12.1:5000':
  465. Duration: N/A, start: 44426.168989, bitrate: 384 kb/s
  466. Program 4
  467. Stream #0:0: Video: h264 (High) ([27][0][0][0] / 0x001B), yuv420p, 720x576 [SAR 12:11 DAR 15:11], 58.75 fps, 50 tbr, 90k tbn, 50 tbc
  468. Stream #0:3(eng): Audio: mp2 ([3][0][0][0] / 0x0003), 48000 Hz, stereo, s16, 128 kb/s
  469. Program 1
  470. Stream #0:1: Video: h264 (High) ([27][0][0][0] / 0x001B), yuv420p, 720x576 [SAR 12:11 DAR 15:11], 56.53 fps, 50 tbr, 90k tbn, 50 tbc
  471. Stream #0:2(eng): Audio: mp2 ([3][0][0][0] / 0x0003), 48000 Hz, stereo, s16, 128 kb/s
  472. Stream #0:4(eng): Audio: mp2 ([3][0][0][0] / 0x0003), 48000 Hz, stereo, s16, 128 kb/s
  473. [buffer @ 0x2e55280] w:720 h:576 pixfmt:yuv420p tb:1/90000 sar:12/11 sws_param:flags=2
  474. [buffersink @ 0x2e5abc0] No opaque field provided
  475. [yadif @ 0x2df9760] mode:0 parity:-1 auto_enable:0
  476. [scale @ 0x2ed5720] w:720 h:576 fmt:yuv420p sar:12/11 -> w:240 h:320 fmt:yuv420p sar:20/11 flags:0x4
  477. [libx264 @ 0x2e7f2a0] using mv_range_thread = 24
  478. [libx264 @ 0x2e7f2a0] using SAR=20/11
  479. [libx264 @ 0x2e7f2a0] using cpu capabilities: none!
  480. [libx264 @ 0x2e7f2a0] profile Main, level 3.0
  481. [h264 @ 0x25f2ea0] detected 4 logical cores
  482. Output #0, rtp, to 'rtp://10.0.254.152:12349':
  483. Metadata:
  484. encoder : Lavf54.6.100
  485. Stream #0:0, 0, 1/90000: Video: h264, yuv420p, 240x320 [SAR 20:11 DAR 15:11], 1/24, q=-1--1, pass 1, 90k tbn, 24 tbc
  486. Stream mapping:
  487. Stream #0:0 -> #0:0 (h264 -> libx264)
  488. SDP:
  489. v=0
  490. o=- 0 0 IN IP4 127.0.0.1
  491. s=No Name
  492. c=IN IP4 10.0.254.152
  493. t=0 0
  494. a=tool:libavformat 54.6.100
  495. m=video 12349 RTP/AVP 96
  496. a=rtpmap:96 H264/90000
  497. a=fmtp:96 packetization-mode=1
  498.  
  499. Press [q] to stop, [?] for help
  500. [h264 @ 0x34451c0] Missing reference picture
  501. [h264 @ 0x34451c0] decode_slice_header error
  502. [h264 @ 0x3489ee0] Missing reference picture
  503. [h264 @ 0x3489ee0] decode_slice_header error
  504. [h264 @ 0x34ea0e0] Missing reference picture
  505. [h264 @ 0x34ea0e0] decode_slice_header error
  506. [h264 @ 0x354a2c0] Cannot combine reference and non-reference fields in the same frame
  507. [h264 @ 0x354a2c0] If you want to help, upload a sample of this file to ftp://upload.ffmpeg.org/MPlayer/incoming/ and contact the ffmpeg-devel mailing list.
  508. [h264 @ 0x354a2c0] decode_slice_header error
  509. [h264 @ 0x35aa4a0] reference picture missing during reorder
  510. Last message repeated 1 times
  511. [h264 @ 0x35aa4a0] Missing reference picture
  512. [h264 @ 0x35aa4a0] decode_slice_header error
  513. [h264 @ 0x34451c0] Missing reference picture
  514. Last message repeated 1 times
  515. [h264 @ 0x3489ee0] mmco: unref short failure
  516. Last message repeated 1 times
  517. [h264 @ 0x3489ee0] no picture
  518. [h264 @ 0x354a2c0] no picture
  519. [h264 @ 0x3489ee0] reference picture missing during reorder
  520. [h264 @ 0x3489ee0] Missing reference picture
  521. [h264 @ 0x34ea0e0] mmco: unref short failure
  522. Last message repeated 1 times
  523. [h264 @ 0x34451c0] mmco: unref short failure
  524. *** drop!26 fps=8.0 q=0.0 size= 0kB time=00:00:00.00 bitrate= 0.0kbits/s
  525. frame= 38 fps= 10 q=0.0 size= 0kB time=00:00:00.00 bitrate= 0.0kbits/s dup=0 drop=1 frame= 51 fps= 12 q=0.0 size= 0kB time=00:00:00.00 bitrate= 0.0kbits/s dup=0 drop=1 *** drop!
  526. [libx264 @ 0x2e7f2a0] frame= 0 QP=20.54 NAL=3 Slice:I Poc:0 I:300 P:0 SKIP:0 size=4434 bytes
  527. [rtp @ 0x267f700] Sending NAL 7 of len 24 M=0
  528. [rtp @ 0x267f700] Sending NAL 8 of len 4 M=0
  529. [rtp @ 0x267f700] Sending NAL 6 of len 740 M=0
  530. [rtp @ 0x267f700] Sending NAL 5 of len 3652 M=1
  531. [rtp @ 0x267f700] NAL size 3652 > 1460
  532. [libx264 @ 0x2e7f2a0] frame= 1 QP=22.99 NAL=2 Slice:P Poc:4 I:27 P:170 SKIP:103 size=1322 bytes
  533. [rtp @ 0x267f700] Sending NAL 1 of len 1318 M=1
  534. [libx264 @ 0x2e7f2a0] frame= 2 QP=29.15 NAL=0 Slice:B Poc:2 I:1 P:120 SKIP:179 size=304 bytes
  535. [rtp @ 0x267f700] Sending NAL 1 of len 300 M=1
  536. frame= 63 fps= 13 q=27.0 size= 6kB time=00:00:02.16 bitrate= 22.8kbits/s dup=0 drop=2frame= 3 QP=23.75 NAL=2 Slice:P Poc:12 I:60 P:155 SKIP:85 size=1758 bytes
  537. [rtp @ 0x267f700] Sending NAL 1 of len 1754 M=1
  538. [rtp @ 0x267f700] NAL size 1754 > 1460
  539. [libx264 @ 0x2e7f2a0] frame= 4 QP=25.78 NAL=2 Slice:B Poc:8 I:6 P:165 SKIP:129 size=692 bytes
  540. [rtp @ 0x267f700] Sending NAL 1 of len 688 M=1
  541. [libx264 @ 0x2e7f2a0] frame= 5 QP=26.70 NAL=0 Slice:B Poc:6 I:9 P:146 SKIP:145 size=406 bytes
  542. [rtp @ 0x267f700] Sending NAL 1 of len 402 M=1
  543. [libx264 @ 0x2e7f2a0] frame= 6 QP=28.42 NAL=0 Slice:B Poc:10 I:0 P:82 SKIP:218 size=282 bytes
  544. [rtp @ 0x267f700] Sending NAL 1 of len 278 M=1
  545. [libx264 @ 0x2e7f2a0] frame= 7 QP=23.53 NAL=2 Slice:P Poc:16 I:43 P:175 SKIP:82 size=1502 bytes
  546. [rtp @ 0x267f700] Sending NAL 1 of len 1498 M=1
  547. [rtp @ 0x267f700] NAL size 1498 > 1460
  548. [libx264 @ 0x2e7f2a0] frame= 8 QP=27.55 NAL=0 Slice:B Poc:14 I:4 P:94 SKIP:202 size=316 bytes
  549. [rtp @ 0x267f700] Sending NAL 1 of len 312 M=1
  550. [libx264 @ 0x2e7f2a0] frame= 9 QP=23.16 NAL=2 Slice:P Poc:24 I:45 P:176 SKIP:79 size=2090 bytes
  551. [rtp @ 0x267f700] Sending NAL 1 of len 2086 M=1
  552. [rtp @ 0x267f700] NAL size 2086 > 1460
  553. [libx264 @ 0x2e7f2a0] frame= 10 QP=25.78 NAL=2 Slice:B Poc:20 I:2 P:120 SKIP:178 size=618 bytes
  554. [rtp @ 0x267f700] Sending NAL 1 of len 614 M=1
  555. [libx264 @ 0x2e7f2a0] frame= 11 QP=26.56 NAL=0 Slice:B Poc:18 I:1 P:102 SKIP:197 size=356 bytes
  556. [rtp @ 0x267f700] Sending NAL 1 of len 352 M=1
  557. [libx264 @ 0x2e7f2a0] frame= 12 QP=27.63 NAL=0 Slice:B Poc:22 I:3 P:95 SKIP:202 size=357 bytes
  558. [rtp @ 0x267f700] Sending NAL 1 of len 353 M=1
  559. [libx264 @ 0x2e7f2a0] frame= 13 QP=23.22 NAL=2 Slice:P Poc:32 I:64 P:161 SKIP:75 size=2528 bytes
  560. [rtp @ 0x267f700] Sending NAL 1 of len 2524 M=1
  561. [rtp @ 0x267f700] NAL size 2524 > 1460
  562. [libx264 @ 0x2e7f2a0] frame= 14 QP=26.07 NAL=2 Slice:B Poc:28 I:4 P:124 SKIP:172 size=652 bytes
  563. [rtp @ 0x267f700] Sending NAL 1 of len 648 M=1
  564. *** drop!
  565. frame= 75 fps= 14 q=27.0 size= 17kB time=00:00:02.66 bitrate= 53.6kbits/s dup=0 drop=3frame= 15 QP=27.30 NAL=0 Slice:B Poc:26 I:2 P:85 SKIP:213 size=389 bytes
  566. [rtp @ 0x267f700] Sending NAL 1 of len 385 M=1
  567. [libx264 @ 0x2e7f2a0] frame= 16 QP=27.05 NAL=0 Slice:B Poc:30 I:2 P:105 SKIP:193 size=434 bytes
  568. [rtp @ 0x267f700] Sending NAL 1 of len 430 M=1
  569. [libx264 @ 0x2e7f2a0] frame= 17 QP=23.39 NAL=2 Slice:P Poc:40 I:50 P:164 SKIP:86 size=2430 bytes
  570. [rtp @ 0x267f700] Sending NAL 1 of len 2426 M=1
  571. [rtp @ 0x267f700] NAL size 2426 > 1460
  572. [libx264 @ 0x2e7f2a0] frame= 18 QP=26.05 NAL=2 Slice:B Poc:36 I:4 P:131 SKIP:165 size=733 bytes
  573. [rtp @ 0x267f700] Sending NAL 1 of len 729 M=1
  574. [libx264 @ 0x2e7f2a0] frame= 19 QP=28.02 NAL=0 Slice:B Poc:34 I:1 P:77 SKIP:222 size=378 bytes
  575. [rtp @ 0x267f700] Sending NAL 1 of len 374 M=1
  576. [libx264 @ 0x2e7f2a0] frame= 20 QP=27.80 NAL=0 Slice:B Poc:38 I:0 P:74 SKIP:226 size=449 bytes
  577. [rtp @ 0x267f700] Sending NAL 1 of len 445 M=1
  578. [libx264 @ 0x2e7f2a0] frame= 21 QP=23.48 NAL=2 Slice:P Poc:48 I:46 P:160 SKIP:94 size=2388 bytes
  579. [rtp @ 0x267f700] Sending NAL 1 of len 2384 M=1
  580. [rtp @ 0x267f700] NAL size 2384 > 1460
  581. [libx264 @ 0x2e7f2a0] frame= 22 QP=26.75 NAL=2 Slice:B Poc:44 I:5 P:116 SKIP:179 size=711 bytes
  582. [rtp @ 0x267f700] Sending NAL 1 of len 707 M=1
  583. [libx264 @ 0x2e7f2a0] frame= 23 QP=28.34 NAL=0 Slice:B Poc:42 I:3 P:80 SKIP:217 size=413 bytes
  584. [rtp @ 0x267f700] Sending NAL 1 of len 409 M=1
  585. [libx264 @ 0x2e7f2a0] frame= 24 QP=27.67 NAL=0 Slice:B Poc:46 I:1 P:67 SKIP:232 size=323 bytes
  586. [rtp @ 0x267f700] Sending NAL 1 of len 319 M=1
  587. [libx264 @ 0x2e7f2a0] frame= 25 QP=23.17 NAL=2 Slice:P Poc:56 I:57 P:170 SKIP:73 size=2863 bytes
  588. [rtp @ 0x267f700] Sending NAL 1 of len 2859 M=1
  589. [rtp @ 0x267f700] NAL size 2859 > 1460
  590. [libx264 @ 0x2e7f2a0] frame= 26 QP=26.94 NAL=2 Slice:B Poc:52 I:4 P:132 SKIP:164 size=820 bytes
  591. [rtp @ 0x267f700] Sending NAL 1 of len 816 M=1
  592. [libx264 @ 0x2e7f2a0] frame= 27 QP=27.38 NAL=0 Slice:B Poc:50 I:0 P:82 SKIP:218 size=379 bytes
  593. [rtp @ 0x267f700] Sending NAL 1 of len 375 M=1
  594. frame= 88 fps= 15 q=27.0 size= 30kB time=00:00:03.20 bitrate= 76.6kbits/s dup=0 drop=3frame= 28 QP=28.27 NAL=0 Slice:B Poc:54 I:3 P:107 SKIP:190 size=506 bytes
  595. [rtp @ 0x267f700] Sending NAL 1 of len 502 M=1
  596. [libx264 @ 0x2e7f2a0] frame= 29 QP=22.75 NAL=2 Slice:P Poc:64 I:46 P:184 SKIP:70 size=3948 bytes
  597. [rtp @ 0x267f700] Sending NAL 1 of len 3944 M=1
  598. [rtp @ 0x267f700] NAL size 3944 > 1460
  599. [libx264 @ 0x2e7f2a0] frame= 30 QP=26.56 NAL=2 Slice:B Poc:60 I:3 P:137 SKIP:160 size=834 bytes
  600. [rtp @ 0x267f700] Sending NAL 1 of len 830 M=1
  601. [libx264 @ 0x2e7f2a0] frame= 31 QP=27.72 NAL=0 Slice:B Poc:58 I:3 P:103 SKIP:194 size=770 bytes
  602. [rtp @ 0x267f700] Sending NAL 1 of len 766 M=1
  603. [libx264 @ 0x2e7f2a0] frame= 32 QP=28.32 NAL=0 Slice:B Poc:62 I:1 P:89 SKIP:210 size=369 bytes
  604. [rtp @ 0x267f700] Sending NAL 1 of len 365 M=1
  605. [libx264 @ 0x2e7f2a0] frame= 33 QP=22.72 NAL=2 Slice:P Poc:72 I:23 P:196 SKIP:81 size=2627 bytes
  606. [rtp @ 0x267f700] Sending NAL 1 of len 2623 M=1
  607. [rtp @ 0x267f700] NAL size 2623 > 1460
  608. [libx264 @ 0x2e7f2a0] frame= 34 QP=26.88 NAL=2 Slice:B Poc:68 I:0 P:111 SKIP:189 size=694 bytes
  609. [rtp @ 0x267f700] Sending NAL 1 of len 690 M=1
  610. [libx264 @ 0x2e7f2a0] frame= 35 QP=28.97 NAL=0 Slice:B Poc:66 I:0 P:77 SKIP:223 size=317 bytes
  611. [rtp @ 0x267f700] Sending NAL 1 of len 313 M=1
  612. [libx264 @ 0x2e7f2a0] frame= 36 QP=27.86 NAL=0 Slice:B Poc:70 I:0 P:78 SKIP:222 size=331 bytes
  613. [rtp @ 0x267f700] Sending NAL 1 of len 327 M=1
  614. [libx264 @ 0x2e7f2a0] frame= 37 QP=22.64 NAL=2 Slice:P Poc:80 I:21 P:188 SKIP:91 size=2535 bytes
  615. [rtp @ 0x267f700] Sending NAL 1 of len 2531 M=1
  616. [rtp @ 0x267f700] NAL size 2531 > 1460
  617. [libx264 @ 0x2e7f2a0] frame= 38 QP=26.34 NAL=2 Slice:B Poc:76 I:1 P:122 SKIP:177 size=603 bytes
  618. [rtp @ 0x267f700] Sending NAL 1 of len 599 M=1
  619. *** drop!
  620. [libx264 @ 0x2e7f2a0] frame= 39 QP=27.75 NAL=0 Slice:B Poc:74 I:0 P:55 SKIP:245 size=244 bytes
  621. [rtp @ 0x267f700] Sending NAL 1 of len 240 M=1
  622. frame= 100 fps= 16 q=27.0 size= 44kB time=00:00:03.70 bitrate= 96.4kbits/s dup=0 drop=4frame= 40 QP=28.32 NAL=0 Slice:B Poc:78 I:1 P:49 SKIP:250 size=170 bytes
  623. [rtp @ 0x267f700] Sending NAL 1 of len 166 M=1
  624. [libx264 @ 0x2e7f2a0] frame= 41 QP=22.38 NAL=2 Slice:P Poc:86 I:14 P:196 SKIP:90 size=2091 bytes
  625. [rtp @ 0x267f700] Sending NAL 1 of len 2087 M=1
  626. [rtp @ 0x267f700] NAL size 2087 > 1460
  627. [libx264 @ 0x2e7f2a0] frame= 42 QP=27.39 NAL=2 Slice:B Poc:84 I:0 P:78 SKIP:222 size=283 bytes
  628. [rtp @ 0x267f700] Sending NAL 1 of len 279 M=1
  629. [libx264 @ 0x2e7f2a0] frame= 43 QP=27.58 NAL=0 Slice:B Poc:82 I:0 P:62 SKIP:238 size=205 bytes
  630. [rtp @ 0x267f700] Sending NAL 1 of len 201 M=1
  631. [libx264 @ 0x2e7f2a0] frame= 44 QP=22.31 NAL=2 Slice:P Poc:94 I:9 P:189 SKIP:102 size=1967 bytes
  632. [rtp @ 0x267f700] Sending NAL 1 of len 1963 M=1
  633. [rtp @ 0x267f700] NAL size 1963 > 1460
  634. [libx264 @ 0x2e7f2a0] frame= 45 QP=25.98 NAL=2 Slice:B Poc:90 I:1 P:93 SKIP:206 size=379 bytes
  635. [rtp @ 0x267f700] Sending NAL 1 of len 375 M=1
  636. [libx264 @ 0x2e7f2a0] frame= 46 QP=27.31 NAL=0 Slice:B Poc:88 I:0 P:57 SKIP:243 size=209 bytes
  637. [rtp @ 0x267f700] Sending NAL 1 of len 205 M=1
  638. [libx264 @ 0x2e7f2a0] frame= 47 QP=27.58 NAL=0 Slice:B Poc:92 I:0 P:38 SKIP:262 size=169 bytes
  639. [rtp @ 0x267f700] Sending NAL 1 of len 165 M=1
  640. [libx264 @ 0x2e7f2a0] frame= 48 QP=22.40 NAL=2 Slice:P Poc:102 I:16 P:194 SKIP:90 size=2633 bytes
  641. [rtp @ 0x267f700] Sending NAL 1 of len 2629 M=1
  642. [rtp @ 0x267f700] NAL size 2629 > 1460
  643. [libx264 @ 0x2e7f2a0] frame= 49 QP=27.00 NAL=2 Slice:B Poc:98 I:0 P:94 SKIP:206 size=414 bytes
  644. [rtp @ 0x267f700] Sending NAL 1 of len 410 M=1
  645. RTP: missed -52856 packets
  646. RTP: PT=21: bad cseq 2d1b expected=fb93
  647. RTP: missed -52855 packets
  648. [rtp @ 0x25ee140] Continuity check failed for pid 103 expected 11 got 0
  649. RTP: missed -1 packets
  650. [rtp @ 0x25ee140] Continuity check failed for pid 403 expected 15 got 0
  651. [rtp @ 0x25ee140] Continuity check failed for pid 105 expected 1 got 4
  652. RTP: missed -1 packets
  653. Last message repeated 2 times
  654. RTP: missed 67 packets
  655. [rtp @ 0x25ee140] Continuity check failed for pid 103 expected 3 got 8
  656. RTP: missed -1 packets
  657. Last message repeated 1 times
  658. [rtp @ 0x25ee140] Continuity check failed for pid 403 expected 2 got 12
  659. RTP: missed -1 packets
  660. Last message repeated 6 times
  661. [rtp @ 0x25ee140] Continuity check failed for pid 404 expected 8 got 15
  662. RTP: missed -1 packets
  663. Last message repeated 3 times
  664. [rtp @ 0x25ee140] Continuity check failed for pid 105 expected 5 got 8
  665. [rtp @ 0x25ee140] PES packet size mismatch
  666. RTP: missed -1 packets
  667. Last message repeated 6 times
  668. RTP: missed 55 packets
  669. [rtp @ 0x25ee140] Continuity check failed for pid 103 expected 8 got 4
  670. RTP: missed -1 packets
  671. [rtp @ 0x25ee140] Continuity check failed for pid 403 expected 4 got 9
  672. [rtp @ 0x25ee140] Continuity check failed for pid 0 expected 14 got 2
  673. RTP: missed -1 packets
  674. Last message repeated 4 times
  675. [rtp @ 0x25ee140] Continuity check failed for pid 104 expected 6 got 1
  676. RTP: missed -1 packets
  677. Last message repeated 2 times
  678. [libx264 @ 0x2e7f2a0] frame= 50 QP=29.31 NAL=0 Slice:B Poc:96 I:0 P:30 SKIP:270 size=168 bytes
  679. [rtp @ 0x267f700] Sending NAL 1 of len 164 M=1
  680. RTP: missed -1 packets
  681. Last message repeated 6 times
  682. [rtp @ 0x25ee140] Continuity check failed for pid 404 expected 0 got 3
  683. RTP: missed -1 packets
  684. Last message repeated 3 times
  685. [rtp @ 0x25ee140] Continuity check failed for pid 105 expected 9 got 12
  686. RTP: missed -1 packets
  687. Last message repeated 13 times
  688. [h264 @ 0x35aa4a0] Reference 2 >= 2
  689. [h264 @ 0x35aa4a0] error while decoding MB 1 18, bytestream (2367)
  690. RTP: missed -1 packets
  691. Last message repeated 8 times
  692. [rtp @ 0x25ee140] Continuity check failed for pid 0 expected 3 got 9
  693. RTP: missed -1 packets
  694. Last message repeated 5 times
  695. RTP: missed 27 packets
  696. RTP: missed -1 packets
  697. [rtp @ 0x25ee140] Continuity check failed for pid 103 expected 11 got 1
  698. RTP: missed -1 packets
  699. [rtp @ 0x25ee140] Continuity check failed for pid 404 expected 5 got 6
  700. [rtp @ 0x25ee140] Continuity check failed for pid 403 expected 12 got 7
  701. RTP: missed -1 packets
  702. Last message repeated 3 times
  703. [rtp @ 0x25ee140] Continuity check failed for pid 105 expected 14 got 15
  704. RTP: missed -1 packets
  705. Last message repeated 6 times
  706. [rtp @ 0x25ee140] Continuity check failed for pid 104 expected 4 got 5
  707. RTP: missed -1 packets
  708. Last message repeated 1 times
  709. [h264 @ 0x34451c0] Frame num gap 132 128
  710. [h264 @ 0x34451c0] Frame num gap 132 129
  711. [h264 @ 0x34451c0] Frame num gap 132 130
  712. frame= 51 QP=28.23 NAL=0 Slice:B Poc:100 I:0 P:72 SKIP:228 size=218 bytes
  713. [rtp @ 0x267f700] Sending NAL 1 of len 214 M=1
  714. ^Cframe= 52 QP=21.84 NAL=2 Slice:P Poc:108 I:5 P:202 SKIP:93 size=1993 bytes
  715. [rtp @ 0x267f700] Sending NAL 1 of len 1989 M=1
  716. [rtp @ 0x267f700] NAL size 1989 > 1460
  717. [libx264 @ 0x2e7f2a0] frame= 53 QP=27.46 NAL=2 Slice:B Poc:106 I:0 P:56 SKIP:244 size=216 bytes
  718. [rtp @ 0x267f700] Sending NAL 1 of len 212 M=1
  719. [libx264 @ 0x2e7f2a0] frame= 54 QP=28.39 NAL=0 Slice:B Poc:104 I:0 P:25 SKIP:275 size=89 bytes
  720. [rtp @ 0x267f700] Sending NAL 1 of len 85 M=1
  721. [libx264 @ 0x2e7f2a0] frame= 55 QP=21.79 NAL=2 Slice:P Poc:116 I:20 P:206 SKIP:74 size=1996 bytes
  722. [rtp @ 0x267f700] Sending NAL 1 of len 1992 M=1
  723. [rtp @ 0x267f700] NAL size 1992 > 1460
  724. [libx264 @ 0x2e7f2a0] frame= 56 QP=26.86 NAL=2 Slice:B Poc:112 I:0 P:73 SKIP:227 size=255 bytes
  725. [rtp @ 0x267f700] Sending NAL 1 of len 251 M=1
  726. [libx264 @ 0x2e7f2a0] frame= 57 QP=28.06 NAL=0 Slice:B Poc:110 I:0 P:16 SKIP:284 size=64 bytes
  727. [rtp @ 0x267f700] Sending NAL 1 of len 60 M=1
  728. [libx264 @ 0x2e7f2a0] frame= 58 QP=27.96 NAL=0 Slice:B Poc:114 I:0 P:16 SKIP:284 size=92 bytes
  729. [rtp @ 0x267f700] Sending NAL 1 of len 88 M=1
  730. [libx264 @ 0x2e7f2a0] frame= 59 QP=21.94 NAL=2 Slice:P Poc:124 I:6 P:198 SKIP:96 size=1669 bytes
  731. [rtp @ 0x267f700] Sending NAL 1 of len 1665 M=1
  732. [rtp @ 0x267f700] NAL size 1665 > 1460
  733. [libx264 @ 0x2e7f2a0] frame= 60 QP=25.40 NAL=2 Slice:B Poc:120 I:0 P:76 SKIP:224 size=332 bytes
  734. [rtp @ 0x267f700] Sending NAL 1 of len 328 M=1
  735. [libx264 @ 0x2e7f2a0] frame= 61 QP=26.83 NAL=0 Slice:B Poc:118 I:0 P:24 SKIP:276 size=102 bytes
  736. [rtp @ 0x267f700] Sending NAL 1 of len 98 M=1
  737. [libx264 @ 0x2e7f2a0] frame= 62 QP=28.21 NAL=0 Slice:B Poc:122 I:0 P:36 SKIP:264 size=114 bytes
  738. [rtp @ 0x267f700] Sending NAL 1 of len 110 M=1
  739. [libx264 @ 0x2e7f2a0] frame= 63 QP=22.19 NAL=2 Slice:P Poc:132 I:15 P:186 SKIP:99 size=1887 bytes
  740. [rtp @ 0x267f700] Sending NAL 1 of len 1883 M=1
  741. [rtp @ 0x267f700] NAL size 1883 > 1460
  742. [libx264 @ 0x2e7f2a0] frame= 64 QP=26.52 NAL=2 Slice:B Poc:128 I:0 P:89 SKIP:211 size=332 bytes
  743. [rtp @ 0x267f700] Sending NAL 1 of len 328 M=1
  744. [libx264 @ 0x2e7f2a0] scene cut at 89 Icost:132560 Pcost:120175 ratio:0.0934 bias:0.1863 gop:89 (imb:199 pmb:35)
  745. [libx264 @ 0x2e7f2a0] frame= 65 QP=29.75 NAL=0 Slice:B Poc:126 I:0 P:27 SKIP:273 size=89 bytes
  746. [rtp @ 0x267f700] Sending NAL 1 of len 85 M=1
  747. [libx264 @ 0x2e7f2a0] frame= 66 QP=28.92 NAL=0 Slice:B Poc:130 I:0 P:24 SKIP:276 size=77 bytes
  748. [rtp @ 0x267f700] Sending NAL 1 of len 73 M=1
  749. [libx264 @ 0x2e7f2a0] frame= 67 QP=22.14 NAL=2 Slice:P Poc:140 I:17 P:182 SKIP:101 size=1862 bytes
  750. [rtp @ 0x267f700] Sending NAL 1 of len 1858 M=1
  751. [rtp @ 0x267f700] NAL size 1858 > 1460
  752. [libx264 @ 0x2e7f2a0] frame= 68 QP=26.71 NAL=2 Slice:B Poc:136 I:0 P:64 SKIP:236 size=211 bytes
  753. [rtp @ 0x267f700] Sending NAL 1 of len 207 M=1
  754. [libx264 @ 0x2e7f2a0] frame= 69 QP=28.62 NAL=0 Slice:B Poc:134 I:0 P:25 SKIP:275 size=108 bytes
  755. [rtp @ 0x267f700] Sending NAL 1 of len 104 M=1
  756. [libx264 @ 0x2e7f2a0] frame= 70 QP=27.81 NAL=0 Slice:B Poc:138 I:0 P:18 SKIP:282 size=91 bytes
  757. [rtp @ 0x267f700] Sending NAL 1 of len 87 M=1
  758. [libx264 @ 0x2e7f2a0] frame= 71 QP=22.59 NAL=2 Slice:P Poc:148 I:3 P:171 SKIP:126 size=1360 bytes
  759. [rtp @ 0x267f700] Sending NAL 1 of len 1356 M=1
  760. [libx264 @ 0x2e7f2a0] frame= 72 QP=26.72 NAL=2 Slice:B Poc:144 I:0 P:49 SKIP:251 size=150 bytes
  761. [rtp @ 0x267f700] Sending NAL 1 of len 146 M=1
  762. [libx264 @ 0x2e7f2a0] frame= 73 QP=28.57 NAL=0 Slice:B Poc:142 I:0 P:4 SKIP:296 size=29 bytes
  763. [rtp @ 0x267f700] Sending NAL 1 of len 25 M=1
  764. [libx264 @ 0x2e7f2a0] frame= 74 QP=27.00 NAL=0 Slice:B Poc:146 I:0 P:5 SKIP:295 size=29 bytes
  765. [rtp @ 0x267f700] Sending NAL 1 of len 25 M=1
  766. [libx264 @ 0x2e7f2a0] frame= 75 QP=22.37 NAL=2 Slice:P Poc:154 I:10 P:186 SKIP:104 size=1386 bytes
  767. [rtp @ 0x267f700] Sending NAL 1 of len 1382 M=1
  768. [libx264 @ 0x2e7f2a0] frame= 76 QP=28.91 NAL=2 Slice:B Poc:152 I:0 P:15 SKIP:285 size=60 bytes
  769. [rtp @ 0x267f700] Sending NAL 1 of len 56 M=1
  770. [libx264 @ 0x2e7f2a0] frame= 77 QP=28.76 NAL=0 Slice:B Poc:150 I:0 P:38 SKIP:262 size=111 bytes
  771. [rtp @ 0x267f700] Sending NAL 1 of len 107 M=1
  772. [libx264 @ 0x2e7f2a0] frame= 78 QP=23.13 NAL=2 Slice:P Poc:162 I:11 P:169 SKIP:120 size=1015 bytes
  773. [rtp @ 0x267f700] Sending NAL 1 of len 1011 M=1
  774. [libx264 @ 0x2e7f2a0] frame= 79 QP=27.64 NAL=2 Slice:B Poc:158 I:0 P:30 SKIP:270 size=141 bytes
  775. [rtp @ 0x267f700] Sending NAL 1 of len 137 M=1
  776. [libx264 @ 0x2e7f2a0] frame= 80 QP=25.69 NAL=0 Slice:B Poc:156 I:0 P:1 SKIP:299 size=17 bytes
  777. [rtp @ 0x267f700] Sending NAL 1 of len 13 M=1
  778. [libx264 @ 0x2e7f2a0] frame= 81 QP=27.00 NAL=0 Slice:B Poc:160 I:0 P:0 SKIP:300 size=12 bytes
  779. [rtp @ 0x267f700] Sending NAL 1 of len 8 M=1
  780. [libx264 @ 0x2e7f2a0] frame= 82 QP=24.49 NAL=2 Slice:P Poc:170 I:6 P:120 SKIP:174 size=539 bytes
  781. [rtp @ 0x267f700] Sending NAL 1 of len 535 M=1
  782. [libx264 @ 0x2e7f2a0] frame= 83 QP=27.64 NAL=2 Slice:B Poc:166 I:0 P:36 SKIP:264 size=136 bytes
  783. [rtp @ 0x267f700] Sending NAL 1 of len 132 M=1
  784. [libx264 @ 0x2e7f2a0] frame= 84 QP=27.00 NAL=0 Slice:B Poc:164 I:0 P:1 SKIP:299 size=14 bytes
  785. [rtp @ 0x267f700] Sending NAL 1 of len 10 M=1
  786. [libx264 @ 0x2e7f2a0] frame= 85 QP=25.45 NAL=0 Slice:B Poc:168 I:0 P:3 SKIP:297 size=24 bytes
  787. [rtp @ 0x267f700] Sending NAL 1 of len 20 M=1
  788. [libx264 @ 0x2e7f2a0] frame= 86 QP=27.56 NAL=2 Slice:P Poc:176 I:1 P:103 SKIP:196 size=370 bytes
  789. [rtp @ 0x267f700] Sending NAL 1 of len 366 M=1
  790. [libx264 @ 0x2e7f2a0] frame= 87 QP=25.38 NAL=2 Slice:B Poc:174 I:1 P:58 SKIP:241 size=235 bytes
  791. [rtp @ 0x267f700] Sending NAL 1 of len 231 M=1
  792. [libx264 @ 0x2e7f2a0] frame= 88 QP=25.50 NAL=0 Slice:B Poc:172 I:0 P:3 SKIP:297 size=25 bytes
  793. [rtp @ 0x267f700] Sending NAL 1 of len 21 M=1
  794. [libx264 @ 0x2e7f2a0] frame= 89 QP=15.89 NAL=3 Slice:I Poc:0 I:300 P:0 SKIP:0 size=8462 bytes
  795. [rtp @ 0x267f700] Sending NAL 7 of len 24 M=0
  796. [rtp @ 0x267f700] Sending NAL 8 of len 4 M=0
  797. [rtp @ 0x267f700] Sending NAL 5 of len 8423 M=1
  798. [rtp @ 0x267f700] NAL size 8423 > 1460
  799. [libx264 @ 0x2e7f2a0] frame= 90 QP=22.04 NAL=2 Slice:P Poc:8 I:1 P:153 SKIP:146 size=1236 bytes
  800. [rtp @ 0x267f700] Sending NAL 1 of len 1232 M=1
  801. [libx264 @ 0x2e7f2a0] frame= 91 QP=25.68 NAL=2 Slice:B Poc:4 I:0 P:12 SKIP:288 size=45 bytes
  802. [rtp @ 0x267f700] Sending NAL 1 of len 41 M=1
  803. [libx264 @ 0x2e7f2a0] frame= 92 QP=27.00 NAL=0 Slice:B Poc:2 I:0 P:1 SKIP:299 size=14 bytes
  804. [rtp @ 0x267f700] Sending NAL 1 of len 10 M=1
  805. [libx264 @ 0x2e7f2a0] frame= 93 QP=25.24 NAL=0 Slice:B Poc:6 I:0 P:1 SKIP:299 size=17 bytes
  806. [rtp @ 0x267f700] Sending NAL 1 of len 13 M=1
  807. [libx264 @ 0x2e7f2a0] frame= 94 QP=20.53 NAL=2 Slice:P Poc:16 I:4 P:186 SKIP:110 size=942 bytes
  808. [rtp @ 0x267f700] Sending NAL 1 of len 938 M=1
  809. [libx264 @ 0x2e7f2a0] frame= 95 QP=21.99 NAL=2 Slice:B Poc:12 I:0 P:4 SKIP:296 size=28 bytes
  810. [rtp @ 0x267f700] Sending NAL 1 of len 24 M=1
  811. [libx264 @ 0x2e7f2a0] frame= 96 QP=22.03 NAL=0 Slice:B Poc:10 I:0 P:2 SKIP:298 size=21 bytes
  812. [rtp @ 0x267f700] Sending NAL 1 of len 17 M=1
  813. [libx264 @ 0x2e7f2a0] frame= 97 QP=25.55 NAL=0 Slice:B Poc:14 I:0 P:1 SKIP:299 size=18 bytes
  814. [rtp @ 0x267f700] Sending NAL 1 of len 14 M=1
  815. [libx264 @ 0x2e7f2a0] frame= 98 QP=21.90 NAL=2 Slice:P Poc:22 I:4 P:188 SKIP:108 size=1160 bytes
  816. [rtp @ 0x267f700] Sending NAL 1 of len 1156 M=1
  817. [libx264 @ 0x2e7f2a0] frame= 99 QP=21.67 NAL=2 Slice:B Poc:20 I:0 P:6 SKIP:294 size=33 bytes
  818. [rtp @ 0x267f700] Sending NAL 1 of len 29 M=1
  819. [libx264 @ 0x2e7f2a0] frame= 100 QP=27.00 NAL=0 Slice:B Poc:18 I:0 P:0 SKIP:300 size=12 bytes
  820. [rtp @ 0x267f700] Sending NAL 1 of len 8 M=1
  821. [libx264 @ 0x2e7f2a0] frame= 101 QP=22.50 NAL=2 Slice:P Poc:30 I:2 P:152 SKIP:146 size=798 bytes
  822. [rtp @ 0x267f700] Sending NAL 1 of len 794 M=1
  823. [libx264 @ 0x2e7f2a0] frame= 102 QP=26.94 NAL=2 Slice:B Poc:26 I:0 P:2 SKIP:298 size=26 bytes
  824. [rtp @ 0x267f700] Sending NAL 1 of len 22 M=1
  825. [libx264 @ 0x2e7f2a0] frame= 103 QP=27.00 NAL=0 Slice:B Poc:24 I:0 P:0 SKIP:300 size=12 bytes
  826. [rtp @ 0x267f700] Sending NAL 1 of len 8 M=1
  827. [libx264 @ 0x2e7f2a0] frame= 104 QP=27.00 NAL=0 Slice:B Poc:28 I:0 P:0 SKIP:300 size=12 bytes
  828. [rtp @ 0x267f700] Sending NAL 1 of len 8 M=1
  829. [libx264 @ 0x2e7f2a0] frame= 105 QP=23.38 NAL=2 Slice:P Poc:38 I:1 P:130 SKIP:169 size=551 bytes
  830. [rtp @ 0x267f700] Sending NAL 1 of len 547 M=1
  831. [libx264 @ 0x2e7f2a0] frame= 106 QP=22.78 NAL=2 Slice:B Poc:34 I:0 P:6 SKIP:294 size=35 bytes
  832. [rtp @ 0x267f700] Sending NAL 1 of len 31 M=1
  833. [libx264 @ 0x2e7f2a0] frame= 107 QP=27.00 NAL=0 Slice:B Poc:32 I:0 P:0 SKIP:300 size=12 bytes
  834. [rtp @ 0x267f700] Sending NAL 1 of len 8 M=1
  835. [libx264 @ 0x2e7f2a0] frame= 108 QP=27.00 NAL=0 Slice:B Poc:36 I:0 P:0 SKIP:300 size=12 bytes
  836. [rtp @ 0x267f700] Sending NAL 1 of len 8 M=1
  837. [libx264 @ 0x2e7f2a0] frame= 109 QP=25.51 NAL=2 Slice:P Poc:46 I:0 P:82 SKIP:218 size=299 bytes
  838. [rtp @ 0x267f700] Sending NAL 1 of len 295 M=1
  839. [libx264 @ 0x2e7f2a0] frame= 110 QP=20.57 NAL=2 Slice:B Poc:42 I:0 P:4 SKIP:296 size=28 bytes
  840. [rtp @ 0x267f700] Sending NAL 1 of len 24 M=1
  841. [libx264 @ 0x2e7f2a0] frame= 111 QP=27.00 NAL=0 Slice:B Poc:40 I:0 P:0 SKIP:300 size=12 bytes
  842. [rtp @ 0x267f700] Sending NAL 1 of len 8 M=1
  843. [libx264 @ 0x2e7f2a0] frame= 112 QP=27.00 NAL=0 Slice:B Poc:44 I:0 P:0 SKIP:300 size=12 bytes
  844. [rtp @ 0x267f700] Sending NAL 1 of len 8 M=1
  845. [libx264 @ 0x2e7f2a0] frame= 113 QP=26.59 NAL=2 Slice:P Poc:48 I:0 P:29 SKIP:271 size=121 bytes
  846. [rtp @ 0x267f700] Sending NAL 1 of len 117 M=1
  847. [libx264 @ 0x2e7f2a0] frame= 114 QP=27.79 NAL=2 Slice:P Poc:52 I:0 P:19 SKIP:281 size=62 bytes
  848. [rtp @ 0x267f700] Sending NAL 1 of len 58 M=1
  849. [libx264 @ 0x2e7f2a0] frame= 115 QP=27.00 NAL=0 Slice:B Poc:50 I:0 P:0 SKIP:300 size=12 bytes
  850. [rtp @ 0x267f700] Sending NAL 1 of len 8 M=1
  851. frame= 116 fps=8.6 q=-1.0 Lsize= 84kB time=00:00:06.87 bitrate= 99.7kbits/s dup=0 drop=4
  852. video:82kB audio:0kB global headers:0kB muxing overhead 1.675076%
  853. [libx264 @ 0x2e7f2a0] frame I:2 Avg QP:18.22 size: 6448
  854. [libx264 @ 0x2e7f2a0] frame P:32 Avg QP:23.19 size: 1623
  855. [libx264 @ 0x2e7f2a0] frame B:82 Avg QP:26.93 size: 237
  856. [libx264 @ 0x2e7f2a0] consecutive B-frames: 2.6% 5.2% 12.9% 79.3%
  857. [libx264 @ 0x2e7f2a0] mb I I16..4: 36.7% 0.0% 63.3%
  858. [libx264 @ 0x2e7f2a0] mb P I16..4: 6.5% 0.0% 0.0% P16..4: 53.5% 0.0% 0.0% 0.0% 0.0% skip:39.9%
  859. [libx264 @ 0x2e7f2a0] mb B I16..4: 0.3% 0.0% 0.0% B16..8: 14.8% 0.0% 0.0% direct: 2.6% skip:82.3% L0:24.0% L1:48.4% BI:27.6%
  860. [libx264 @ 0x2e7f2a0] direct mvs spatial:96.3% temporal:3.7%
  861. [libx264 @ 0x2e7f2a0] coded y,uvDC,uvAC intra: 52.0% 57.4% 27.9% inter: 8.0% 5.1% 0.3%
  862. [libx264 @ 0x2e7f2a0] i16 v,h,dc,p: 52% 22% 19% 6%
  863. [libx264 @ 0x2e7f2a0] i4 v,h,dc,ddl,ddr,vr,hd,vl,hu: 32% 18% 16% 2% 10% 7% 6% 4% 5%
  864. [libx264 @ 0x2e7f2a0] i8c dc,h,v,p: 53% 20% 22% 4%
  865. [libx264 @ 0x2e7f2a0] Weighted P-Frames: Y:0.0% UV:0.0%
  866. [libx264 @ 0x2e7f2a0] kb/s:139.42
  867. Received signal 2: terminating.
Advertisement
Advertisement
Advertisement
RAW Paste Data Copied
Advertisement