v0danh

The.Witch.Part.1.The.Subversion.BluRay.2018.1080p.HDS info

Jul 18th, 2019
145
Never
Not a member of Pastebin yet? Sign Up, it unlocks many cool features!
  1. General
  2. Unique ID : 202253906794541238867043396744636470843 (0x9828AF7FF98F96895D6DC71E29E3163B)
  3. Complete name : G:\0002\The.Witch.Part.1.The.Subversion.BluRay.2018.1080p.BluRay.DTS.x264-HDS.mkv
  4. Format : Matroska
  5. Format version : Version 4 / Version 2
  6. File size : 12.7 GiB
  7. Duration : 2 h 5 min
  8. Overall bit rate mode : Variable
  9. Overall bit rate : 14.5 Mb/s
  10. Movie name : The Witch Part.1 The Subversion BluRay 2018 1080p BluRay DTS x264-HDS
  11. Encoded date : UTC 2019-03-04 01:25:19
  12. Writing application : mkvmerge v22.0.0 ('At The End Of The World') 64-bit
  13. Writing library : libebml v1.3.5 + libmatroska v1.4.8
  14.  
  15. Video
  16. ID : 1
  17. Format : AVC
  18. Format/Info : Advanced Video Codec
  19. Format profile : High@L4.1
  20. Format settings : CABAC / 5 Ref Frames
  21. Format settings, CABAC : Yes
  22. Format settings, ReFrames : 5 frames
  23. Codec ID : V_MPEG4/ISO/AVC
  24. Duration : 2 h 5 min
  25. Bit rate : 11.1 Mb/s
  26. Width : 1 920 pixels
  27. Height : 804 pixels
  28. Display aspect ratio : 2.40:1
  29. Frame rate mode : Constant
  30. Frame rate : 23.976 (24000/1001) FPS
  31. Color space : YUV
  32. Chroma subsampling : 4:2:0
  33. Bit depth : 8 bits
  34. Scan type : Progressive
  35. Bits/(Pixel*Frame) : 0.301
  36. Stream size : 9.77 GiB (77%)
  37. Title : nwudjr@HDSky
  38. Writing library : x264 core 148 r2705+45 bdacf7a 7mod [8-bit@all X86_64]
  39. Encoding settings : cabac=1 / ref=5 / deblock=1:-3:-3 / analyse=0x3:0x113 / me=umh / subme=11 / psy=1 / fade_compensate=0.00 / psy_rd=1.00:0.05 / mixed_ref=1 / me_range=32 / chroma_me=1 / trellis=2 / 8x8dct=1 / cqm=0 / deadzone=21,11 / fast_pskip=0 / chroma_qp_offset=-2 / threads=16 / lookahead_threads=2 / sliced_threads=0 / nr=0 / decimate=1 / interlaced=0 / bluray_compat=0 / constrained_intra=0 / fgo=0 / bframes=8 / b_pyramid=2 / b_adapt=2 / b_bias=0 / direct=3 / weightb=1 / open_gop=0 / weightp=2 / keyint=250 / keyint_min=23 / scenecut=40 / intra_refresh=0 / rc_lookahead=40 / rc=crf / mbtree=0 / crf=15.6000 / qcomp=0.60 / qpmin=0:0:0 / qpmax=69:69:69 / qpstep=4 / vbv_maxrate=50000 / vbv_bufsize=40000 / crf_max=0.0 / nal_hrd=none / filler=0 / ip_ratio=1.40 / pb_ratio=1.30 / aq=4:0.90 / aq-sensitivity=10.00 / aq-factor=1.00:1.00:1.00 / aq2=0 / aq3=0
  40. Default : Yes
  41. Forced : No
  42.  
  43. Audio
  44. ID : 2
  45. Format : DTS XLL
  46. Format/Info : Digital Theater Systems
  47. Commercial name : DTS-HD Master Audio
  48. Codec ID : A_DTS
  49. Duration : 2 h 5 min
  50. Bit rate mode : Variable
  51. Bit rate : 3 344 kb/s
  52. Channel(s) : 6 channels
  53. Channel layout : C L R Ls Rs LFE
  54. Sampling rate : 48.0 kHz
  55. Frame rate : 93.750 FPS (512 SPF)
  56. Bit depth : 24 bits
  57. Compression mode : Lossless
  58. Stream size : 2.94 GiB (23%)
  59. Title : Korean
  60. Language : Korean
  61. Default : Yes
  62. Forced : No
  63.  
  64. Text #1
  65. ID : 3
  66. Format : PGS
  67. Muxing mode : zlib
  68. Codec ID : S_HDMV/PGS
  69. Codec ID/Info : Picture based subtitle format used on BDs/HD-DVDs
  70. Duration : 1 h 58 min
  71. Bit rate : 23.8 kb/s
  72. Count of elements : 2164
  73. Stream size : 20.2 MiB (0%)
  74. Title : KOR
  75. Language : Korean
  76. Default : Yes
  77. Forced : No
  78.  
  79. Text #2
  80. ID : 4
  81. Format : PGS
  82. Muxing mode : zlib
  83. Codec ID : S_HDMV/PGS
  84. Codec ID/Info : Picture based subtitle format used on BDs/HD-DVDs
  85. Duration : 2 h 2 min
  86. Bit rate : 22.6 kb/s
  87. Count of elements : 2174
  88. Stream size : 19.8 MiB (0%)
  89. Title : ENG
  90. Language : English
  91. Default : No
  92. Forced : No
  93.  
  94. Menu
  95. 00:00:00.000 : en:00:00:00.000
  96. 00:10:41.558 : en:00:10:41.558
  97. 00:19:01.807 : en:00:19:01.807
  98. 00:28:10.147 : en:00:28:10.147
  99. 00:36:00.867 : en:00:36:00.867
  100. 00:43:33.110 : en:00:43:33.110
  101. 00:50:44.583 : en:00:50:44.583
  102. 00:55:10.349 : en:00:55:10.349
  103. 01:01:18.550 : en:01:01:18.550
  104. 01:08:49.375 : en:01:08:49.375
  105. 01:19:40.401 : en:01:19:40.401
  106. 01:29:09.719 : en:01:29:09.719
  107. 01:38:15.556 : en:01:38:15.556
  108. 01:45:25.277 : en:01:45:25.277
  109. 01:52:23.195 : en:01:52:23.195
  110. 01:59:22.781 : en:01:59:22.781
RAW Paste Data