SHARE
TWEET

Untitled

a guest Feb 27th, 2020 95 Never
Not a member of Pastebin yet? Sign Up, it unlocks many cool features!
  1. Общее
  2. Уникальный идентификатор                 : 150807270685662359872788350995876431338 (0x71746C81127071D98F06FBE7C88A45EA)
  3. Полное имя                               : The.Peanut Butter Falcon (2019) BDRip (1920x804) HEVC.mkv
  4. Формат                                   : Matroska
  5. Версия формата                           : Version 4 / Version 2
  6. Размер файла                             : 7,07 Гбайт
  7. Продолжительность                        : 1 ч. 36 м.
  8. Общий поток                              : 10,4 Мбит/сек
  9. Название фильма                          : The Peanut Butter Falcon 2019
  10. Программа кодирования                    : XviD4PSP 8.0.91
  11. Библиотека кодирования                   : Lavf58.20.100
  12. ErrorDetectionType                       : Per level 1
  13. ENCODING_INFO                            : MATROSKA,WEBM > MKV 1920x1080 HEVC 10-bit
  14.  
  15. Видео
  16. Идентификатор                            : 1
  17. Формат                                   : HEVC
  18. Формат/Информация                        : High Efficiency Video Coding
  19. Профиль формата                          : Main 10@L4.1@High
  20. Идентификатор кодека                     : V_MPEGH/ISO/HEVC
  21. Продолжительность                        : 1 ч. 36 м.
  22. Битрейт                                  : 9214 Кбит/сек
  23. Ширина                                   : 1920 пикселей
  24. Высота                                   : 804 пикселя
  25. Соотношение сторон                       : 2,40:1
  26. Режим частоты кадров                     : Постоянный
  27. Частота кадров                           : 23,976 (24000/1001) кадра/сек
  28. Цветовое пространство                    : YUV
  29. Субдискретизация насыщенности            : 4:2:0
  30. Битовая глубина                          : 10 бит
  31. Бит/(Пиксели*Кадры)                      : 0.249
  32. Размер потока                            : 6,24 Гбайт (88%)
  33. Язык                                     : English
  34. Default                                  : Да
  35. Forced                                   : Нет
  36. Цветовой диапазон                        : Limited
  37. Основные цвета                           : BT.709
  38. Характеристики трансфера                 : BT.709
  39. Коэффициенты матрицы                     : BT.709
  40. ENCODING_INFO                            : H264 > HEVC NVENC VBR 9600kbps HQ
  41.  
  42. Аудио #1
  43. Идентификатор                            : 2
  44. Формат                                   : AC-3
  45. Формат/Информация                        : Audio Coding 3
  46. Параметр Endianness формата              : Big
  47. Идентификатор кодека                     : A_AC3
  48. Продолжительность                        : 1 ч. 36 м.
  49. Вид битрейта                             : Постоянный
  50. Битрейт                                  : 384 Кбит/сек
  51. Каналы                                   : 6 каналов
  52. Расположение каналов                     : Front: L C R, Side: L R, LFE
  53. Частота                                  : 48,0 КГц
  54. Частота кадров                           : 31,250 кадров/сек (1536 SPF)
  55. Битовая глубина                          : 16 бит
  56. Метод сжатия                             : С потерями
  57. Размер потока                            : 266 Мбайт (4%)
  58. Заголовок                                : iTunes
  59. Язык                                     : Russian
  60. ServiceKind/String                       : Complete Main
  61. Default                                  : Да
  62. Forced                                   : Нет
  63. ENCODING_INFO                            : AC3 > COPY Быстрое
  64.  
  65. Аудио #2
  66. Идентификатор                            : 3
  67. Формат                                   : AC-3
  68. Формат/Информация                        : Audio Coding 3
  69. Параметр Endianness формата              : Big
  70. Идентификатор кодека                     : A_AC3
  71. Продолжительность                        : 1 ч. 36 м.
  72. Вид битрейта                             : Постоянный
  73. Битрейт                                  : 640 Кбит/сек
  74. Каналы                                   : 6 каналов
  75. Расположение каналов                     : Front: L C R, Side: L R, LFE
  76. Частота                                  : 48,0 КГц
  77. Частота кадров                           : 31,250 кадров/сек (1536 SPF)
  78. Битовая глубина                          : 16 бит
  79. Метод сжатия                             : С потерями
  80. Размер потока                            : 444 Мбайт (6%)
  81. Заголовок                                : Original
  82. Язык                                     : English
  83. ServiceKind/String                       : Complete Main
  84. Default                                  : Нет
  85. Forced                                   : Нет
  86. ENCODING_INFO                            : DTS-HD MA > AC3 CBR 640kbps
  87.  
  88. Текст #1
  89. Идентификатор                            : 4
  90. Формат                                   : UTF-8
  91. Идентификатор кодека                     : S_TEXT/UTF8
  92. Идентификатор кодека/Информация          : UTF-8 Plain Text
  93. Заголовок                                : Full [MENINSUB]
  94. Язык                                     : Russian
  95. Default                                  : Да
  96. Forced                                   : Нет
  97. ENCODING_INFO                            : SUBRIP > COPY Быстрое
  98.  
  99. Текст #2
  100. Идентификатор                            : 5
  101. Формат                                   : UTF-8
  102. Идентификатор кодека                     : S_TEXT/UTF8
  103. Идентификатор кодека/Информация          : UTF-8 Plain Text
  104. Заголовок                                : Full
  105. Язык                                     : English
  106. Default                                  : Нет
  107. Forced                                   : Нет
  108. ENCODING_INFO                            : SUBRIP > COPY Быстрое
  109.  
  110. Текст #3
  111. Идентификатор                            : 6
  112. Формат                                   : UTF-8
  113. Идентификатор кодека                     : S_TEXT/UTF8
  114. Идентификатор кодека/Информация          : UTF-8 Plain Text
  115. Заголовок                                : SDH
  116. Язык                                     : English
  117. Default                                  : Нет
  118. Forced                                   : Нет
  119. ENCODING_INFO                            : SUBRIP > COPY Быстрое
  120.  
  121. Меню
  122. 00:00:00.000                             : :Chapter 01
  123. 00:08:14.243                             : :Chapter 02
  124. 00:17:54.073                             : :Chapter 03
  125. 00:25:26.191                             : :Chapter 04
  126. 00:32:30.949                             : :Chapter 05
  127. 00:42:37.555                             : :Chapter 06
  128. 00:50:34.906                             : :Chapter 07
  129. 00:58:02.270                             : :Chapter 08
  130. 01:04:19.856                             : :Chapter 09
  131. 01:13:20.396                             : :Chapter 10
  132. 01:21:12.617                             : :Chapter 11
  133. 01:31:09.464                             : :Chapter 12
RAW Paste Data
We use cookies for various purposes including analytics. By continuing to use Pastebin, you agree to our use of cookies as described in the Cookies Policy. OK, I Understand
Top