daily pastebin goal
41%
SHARE
TWEET

Inferno_4K

iMN0 Jun 14th, 2017 136 Never
Not a member of Pastebin yet? Sign Up, it unlocks many cool features!
  1. General
  2. Complete name :Inferno.2016.2160p.4K.UHD.10bit.HDR.BluRay.7.1.x265.HEVC-MZABI.mkv
  3. Format : Matroska
  4. Format version : Version 4 / Version 2
  5. File size : 10.5 GiB
  6. Duration : 2 h 1 min
  7. Overall bit rate : 12.4 Mb/s
  8. Encoded date : UTC 2017-06-13 02:05:25
  9. Writing application : mkvmerge v9.6.0 ('Slave To Your Mind') 64bit
  10. Writing library : libebml v1.3.4 + libmatroska v1.4.5
  11.  
  12. Video
  13. ID : 1
  14. Format : HEVC
  15. Format/Info : High Efficiency Video Coding
  16. Format profile : Main 10@L5@Main
  17. Codec ID : V_MPEGH/ISO/HEVC
  18. Duration : 2 h 1 min
  19. Bit rate : 12.0 Mb/s
  20. Width : 3 840 pixels
  21. Height : 2 076 pixels
  22. Display aspect ratio : 1.85:1
  23. Frame rate mode : Constant
  24. Frame rate : 23.976 (24000/1001) FPS
  25. Original frame rate : 23.976 (23976/1000) FPS
  26. Color space : YUV
  27. Chroma subsampling : 4:2:0
  28. Bit depth : 10 bits
  29. Bits/(Pixel*Frame) : 0.063
  30. Stream size : 10.2 GiB (97%)
  31. Title : HEVC x265 10bit HDR BT2020 Video / 8000 kbps / 2160p / 23.976 fps / Main 10 Profile 5
  32. Writing library : x265 1.9:[Linux][GCC 4.6.2][64 bit] 10bit
  33. Encoding settings : wpp / ctu=64 / min-cu-size=8 / max-tu-size=32 / tu-intra-depth=1 / tu-inter-depth=1 / me=1 / subme=2 / merange=57 / no-rect / no-amp / max-merge=2 / temporal-mvp / no-early-skip / rdpenalty=0 / no-tskip / no-tskip-fast / strong-intra-smoothing / no-lossless / no-cu-lossless / no-constrained-intra / fast-intra / no-open-gop / no-temporal-layers / interlace=0 / keyint=250 / min-keyint=23 / scenecut=0 / rc-lookahead=15 / lookahead-slices=8 / bframes=4 / bframe-bias=0 / b-adapt=2 / ref=3 / limit-refs=3 / no-limit-modes / weightp / no-weightb / aq-mode=1 / qg-size=32 / aq-strength=1.00 / cbqpoffs=0 / crqpoffs=0 / rd=2 / psy-rd=2.00 / rdoq-level=0 / psy-rdoq=0.00 / signhide / deblock / sao / no-sao-non-deblock / b-pyramid / cutree / no-intra-refresh / rc=2 / pass / bitrate=12000 / qcomp=0.60 / qpmin=0 / qpmax=51 / qpstep=4 / cplxblur=20.0 / qblur=0.5 / ipratio=1.40 / pbratio=1.30
  34. Default : Yes
  35. Forced : No
  36. Color range : Limited
  37. Color primaries : BT.2020
  38. Transfer characteristics : SMPTE ST 2084
  39. Matrix coefficients : BT.2020 non-constant
  40.  
  41. Audio
  42. ID : 2
  43. Format : AAC
  44. Format/Info : Advanced Audio Codec
  45. Format profile : LC
  46. Codec ID : A_AAC
  47. Duration : 2 h 1 min
  48. Bit rate : 353 kb/s
  49. Channel(s) : 7 channels
  50. Channel(s)_Original : 8 channels
  51. Channel positions : Front: L C R, Side: L R, Back: L R, LFE
  52. Sampling rate : 48.0 kHz
  53. Frame rate : 46.875 FPS (1024 spf)
  54. Compression mode : Lossy
  55. Delay relative to video : 9 ms
  56. Stream size : 305 MiB (3%)
  57. Title : LC-AAC / 7.1 / 48 kHz
  58. Language : English
  59. Default : No
  60. Forced : No
  61.  
  62. Text #1
  63. ID : 3
  64. Format : PGS
  65. Muxing mode : zlib
  66. Codec ID : S_HDMV/PGS
  67. Codec ID/Info : Picture based subtitle format used on BDs/HD-DVDs
  68. Duration : 1 h 55 min
  69. Bit rate : 16.4 kb/s
  70. Count of elements : 2720
  71. Stream size : 13.5 MiB (0%)
  72. Language : English
  73. Default : No
  74. Forced : No
  75.  
  76. Text #2
  77. ID : 4
  78. Format : PGS
  79. Muxing mode : zlib
  80. Codec ID : S_HDMV/PGS
  81. Codec ID/Info : Picture based subtitle format used on BDs/HD-DVDs
  82. Duration : 1 h 55 min
  83. Bit rate : 11.2 kb/s
  84. Count of elements : 2788
  85. Stream size : 9.24 MiB (0%)
  86. Language : Arabic
  87. Default : No
  88. Forced : No
RAW Paste Data
We use cookies for various purposes including analytics. By continuing to use Pastebin, you agree to our use of cookies as described in the Cookies Policy. OK, I Understand
 
Top