SHARE
TWEET

A Kite

CyberPunker00 Feb 24th, 2012 288 Never
Not a member of Pastebin yet? Sign Up, it unlocks many cool features!
  1. Format                                   : MPEG-4
  2. Format profile                           : Base Media
  3. Codec ID                                 : isom
  4. File size                                : 1.20 GiB
  5. Duration                                 : 51mn 5s
  6. Overall bit rate mode                    : Variable
  7. Overall bit rate                         : 3 371 Kbps
  8. Encoded date                             : UTC 2008-05-09 22:16:03
  9. Tagged date                              : UTC 2008-05-09 22:16:03
  10.  
  11. Video
  12. ID                                       : 1
  13. Format                                   : AVC
  14. Format/Info                              : Advanced Video Codec
  15. Format profile                           : High@L5.1
  16. Format settings, CABAC                   : Yes
  17. Format settings, ReFrames                : 5 frames
  18. Codec ID                                 : avc1
  19. Codec ID/Info                            : Advanced Video Coding
  20. Duration                                 : 51mn 5s
  21. Bit rate                                 : 3 183 Kbps
  22. Maximum bit rate                         : 13.7 Mbps
  23. Width                                    : 1 280 pixels
  24. Height                                   : 960 pixels
  25. Display aspect ratio                     : 4:3
  26. Frame rate mode                          : Variable
  27. Frame rate                               : 26.325 fps
  28. Original frame rate                      : 29.970 fps
  29. Minimum frame rate                       : 14.985 fps
  30. Maximum frame rate                       : 119.880 fps
  31. Color space                              : YUV
  32. Chroma subsampling                       : 4:2:0
  33. Bit depth                                : 8 bits
  34. Scan type                                : Progressive
  35. Bits/(Pixel*Frame)                       : 0.098
  36. Stream size                              : 1.14 GiB (94%)
  37. Writing library                          : x264 core 59
  38. Encoding settings                        : cabac=1 / ref=5 / deblock=1:-2:-2 / analyse=0x3:0x111 / me=esa / subme=5 / brdo=0 / mixed_ref=1 / me_range=32 / chroma_me=1 / trellis=2 / 8x8dct=1 / cqm=1 / deadzone=21,11 / chroma_qp_offset=0 / threads=4 / nr=0 / decimate=0 / mbaff=0 / bframes=4 / b_pyramid=1 / b_adapt=1 / b_bias=0 / direct=2 / wpredb=1 / bime=1 / keyint=300 / keyint_min=1 / scenecut=54(pre) / rc=crf / crf=22.0 / rceq='blurCplx^(1-qComp)' / qcomp=0.80 / qpmin=16 / qpmax=34 / qpstep=8 / ip_ratio=1.40 / pb_ratio=1.30 / aq=0
  39. Encoded date                             : UTC 2008-05-09 15:13:50
  40. Tagged date                              : UTC 2008-05-09 22:17:00
  41.  
  42. Audio
  43. ID                                       : 2
  44. Format                                   : AAC
  45. Format/Info                              : Advanced Audio Codec
  46. Format profile                           : LC
  47. Codec ID                                 : 40
  48. Duration                                 : 51mn 5s
  49. Duration_LastFrame                       : -19ms
  50. Bit rate mode                            : Variable
  51. Bit rate                                 : 183 Kbps
  52. Maximum bit rate                         : 225 Kbps
  53. Channel(s)                               : 2 channels
  54. Channel positions                        : Front: L R
  55. Sampling rate                            : 48.0 KHz
  56. Compression mode                         : Lossy
  57. Stream size                              : 67.0 MiB (5%)
  58. Encoded date                             : UTC 2008-05-10 22:13:59
  59. Tagged date                              : UTC 2008-05-09 22:17:00
RAW Paste Data
We use cookies for various purposes including analytics. By continuing to use Pastebin, you agree to our use of cookies as described in the Cookies Policy. OK, I Understand
 
Top