SHARE
TWEET

The.Island.2005.BluRay.1080p.DTS-HD.MA.5.1.AVC.REMUX-FraMeSToR

a guest May 15th, 2019 124 Never
Not a member of Pastebin yet? Sign Up, it unlocks many cool features!
  1. General
  2. Unique ID                                : 252544046202731868200523188526940354203 (0xBDFE36CE54A3DE9682FFD0246276F69B)
  3. Complete name                            : The.Island.2005.BluRay.1080p.DTS-HD.MA.5.1.AVC.REMUX-FraMeSToR-Obfuscated.mkv
  4. Format                                   : Matroska
  5. Format version                           : Version 4
  6. File size                                : 39.7 GiB
  7. Duration                                 : 2 h 16 min
  8. Overall bit rate mode                    : Variable
  9. Overall bit rate                         : 41.8 Mb/s
  10. Movie name                               : The Island
  11. Encoded date                             : UTC 2017-05-18 00:20:33
  12. Writing application                      : mkvmerge v11.0.0 ('Alive') 64bit
  13. Writing library                          : libebml v1.3.4 + libmatroska v1.4.5
  14.  
  15. Video
  16. ID                                       : 1
  17. Format                                   : AVC
  18. Format/Info                              : Advanced Video Codec
  19. Format profile                           : High@L4.1
  20. Format settings                          : CABAC / 4 Ref Frames
  21. Format settings, CABAC                   : Yes
  22. Format settings, Reference frames        : 4 frames
  23. Codec ID                                 : V_MPEG4/ISO/AVC
  24. Duration                                 : 2 h 16 min
  25. Bit rate mode                            : Variable
  26. Bit rate                                 : 36.2 Mb/s
  27. Maximum bit rate                         : 39.0 Mb/s
  28. Width                                    : 1 920 pixels
  29. Height                                   : 1 080 pixels
  30. Display aspect ratio                     : 16:9
  31. Frame rate mode                          : Constant
  32. Frame rate                               : 23.976 (24000/1001) FPS
  33. Color space                              : YUV
  34. Chroma subsampling                       : 4:2:0
  35. Bit depth                                : 8 bits
  36. Scan type                                : Progressive
  37. Bits/(Pixel*Frame)                       : 0.727
  38. Stream size                              : 34.4 GiB (87%)
  39. Default                                  : Yes
  40. Forced                                   : No
  41. Color range                              : Limited
  42. Color primaries                          : BT.709
  43. Transfer characteristics                 : BT.709
  44. Matrix coefficients                      : BT.709
  45.  
  46. Audio #1
  47. ID                                       : 2
  48. Format                                   : DTS XLL
  49. Format/Info                              : Digital Theater Systems
  50. Commercial name                          : DTS-HD Master Audio
  51. Codec ID                                 : A_DTS
  52. Duration                                 : 2 h 16 min
  53. Bit rate mode                            : Variable
  54. Bit rate                                 : 4 391 kb/s
  55. Channel(s)                               : 6 channels
  56. Channel layout                           : C L R Ls Rs LFE
  57. Sampling rate                            : 48.0 kHz
  58. Frame rate                               : 93.750 FPS (512 SPF)
  59. Bit depth                                : 24 bits
  60. Compression mode                         : Lossless
  61. Stream size                              : 4.17 GiB (11%)
  62. Title                                    : DTS-HD MA 5.1
  63. Language                                 : English
  64. Default                                  : Yes
  65. Forced                                   : No
  66.  
  67. Audio #2
  68. ID                                       : 3
  69. Format                                   : AC-3
  70. Format/Info                              : Audio Coding 3
  71. Commercial name                          : Dolby Digital
  72. Codec ID                                 : A_AC3
  73. Duration                                 : 2 h 16 min
  74. Bit rate mode                            : Constant
  75. Bit rate                                 : 224 kb/s
  76. Channel(s)                               : 2 channels
  77. Channel layout                           : L R
  78. Sampling rate                            : 48.0 kHz
  79. Frame rate                               : 31.250 FPS (1536 SPF)
  80. Bit depth                                : 16 bits
  81. Compression mode                         : Lossy
  82. Stream size                              : 218 MiB (1%)
  83. Title                                    : Commentary by Director Michael Bay
  84. Language                                 : English
  85. Service kind                             : Complete Main
  86. Default                                  : No
  87. Forced                                   : No
  88.  
  89. Text #1
  90. ID                                       : 4
  91. Format                                   : PGS
  92. Codec ID                                 : S_HDMV/PGS
  93. Codec ID/Info                            : Picture based subtitle format used on BDs/HD-DVDs
  94. Duration                                 : 2 h 3 min
  95. Bit rate                                 : 33.0 kb/s
  96. Count of elements                        : 2958
  97. Stream size                              : 29.2 MiB (0%)
  98. Title                                    : English
  99. Language                                 : English
  100. Default                                  : Yes
  101. Forced                                   : No
  102.  
  103. Text #2
  104. ID                                       : 5
  105. Format                                   : PGS
  106. Codec ID                                 : S_HDMV/PGS
  107. Codec ID/Info                            : Picture based subtitle format used on BDs/HD-DVDs
  108. Duration                                 : 2 h 5 min
  109. Bit rate                                 : 36.2 kb/s
  110. Count of elements                        : 3346
  111. Stream size                              : 32.5 MiB (0%)
  112. Title                                    : English (SDH)
  113. Language                                 : English
  114. Default                                  : No
  115. Forced                                   : No
  116.  
  117. Text #3
  118. ID                                       : 6
  119. Format                                   : PGS
  120. Codec ID                                 : S_HDMV/PGS
  121. Codec ID/Info                            : Picture based subtitle format used on BDs/HD-DVDs
  122. Duration                                 : 2 h 3 min
  123. Bit rate                                 : 32.1 kb/s
  124. Count of elements                        : 2990
  125. Stream size                              : 28.3 MiB (0%)
  126. Title                                    : French
  127. Language                                 : French
  128. Default                                  : No
  129. Forced                                   : No
  130.  
  131. Text #4
  132. ID                                       : 7
  133. Format                                   : PGS
  134. Codec ID                                 : S_HDMV/PGS
  135. Codec ID/Info                            : Picture based subtitle format used on BDs/HD-DVDs
  136. Duration                                 : 2 h 4 min
  137. Bit rate                                 : 30.8 kb/s
  138. Count of elements                        : 2796
  139. Stream size                              : 27.5 MiB (0%)
  140. Title                                    : Spanish (Latin American)
  141. Language                                 : Spanish
  142. Default                                  : No
  143. Forced                                   : No
  144.  
  145. Text #5
  146. ID                                       : 8
  147. Format                                   : PGS
  148. Codec ID                                 : S_HDMV/PGS
  149. Codec ID/Info                            : Picture based subtitle format used on BDs/HD-DVDs
  150. Duration                                 : 2 h 15 min
  151. Bit rate                                 : 51.6 kb/s
  152. Count of elements                        : 2669
  153. Stream size                              : 49.9 MiB (0%)
  154. Title                                    : German
  155. Language                                 : German
  156. Default                                  : No
  157. Forced                                   : No
  158.  
  159. Text #6
  160. ID                                       : 9
  161. Format                                   : PGS
  162. Codec ID                                 : S_HDMV/PGS
  163. Codec ID/Info                            : Picture based subtitle format used on BDs/HD-DVDs
  164. Duration                                 : 2 h 15 min
  165. Bit rate                                 : 54.9 kb/s
  166. Count of elements                        : 2848
  167. Stream size                              : 53.1 MiB (0%)
  168. Title                                    : German (SDH)
  169. Language                                 : German
  170. Default                                  : No
  171. Forced                                   : No
  172.  
  173. Text #7
  174. ID                                       : 10
  175. Format                                   : PGS
  176. Codec ID                                 : S_HDMV/PGS
  177. Codec ID/Info                            : Picture based subtitle format used on BDs/HD-DVDs
  178. Duration                                 : 2 h 13 min
  179. Bit rate                                 : 48.5 kb/s
  180. Count of elements                        : 2664
  181. Stream size                              : 46.5 MiB (0%)
  182. Title                                    : Italian
  183. Language                                 : Italian
  184. Default                                  : No
  185. Forced                                   : No
  186.  
  187. Text #8
  188. ID                                       : 11
  189. Format                                   : PGS
  190. Codec ID                                 : S_HDMV/PGS
  191. Codec ID/Info                            : Picture based subtitle format used on BDs/HD-DVDs
  192. Duration                                 : 2 h 13 min
  193. Bit rate                                 : 52.3 kb/s
  194. Count of elements                        : 2846
  195. Stream size                              : 50.1 MiB (0%)
  196. Title                                    : Italian (SDH)
  197. Language                                 : Italian
  198. Default                                  : No
  199. Forced                                   : No
  200.  
  201. Text #9
  202. ID                                       : 12
  203. Format                                   : PGS
  204. Codec ID                                 : S_HDMV/PGS
  205. Codec ID/Info                            : Picture based subtitle format used on BDs/HD-DVDs
  206. Duration                                 : 2 h 15 min
  207. Bit rate                                 : 41.7 kb/s
  208. Count of elements                        : 2770
  209. Stream size                              : 40.3 MiB (0%)
  210. Title                                    : Spanish (Castilian)
  211. Language                                 : Spanish
  212. Default                                  : No
  213. Forced                                   : No
  214.  
  215. Text #10
  216. ID                                       : 13
  217. Format                                   : PGS
  218. Codec ID                                 : S_HDMV/PGS
  219. Codec ID/Info                            : Picture based subtitle format used on BDs/HD-DVDs
  220. Duration                                 : 2 h 13 min
  221. Bit rate                                 : 36.5 kb/s
  222. Count of elements                        : 2313
  223. Stream size                              : 35.0 MiB (0%)
  224. Title                                    : Dutch
  225. Language                                 : Dutch
  226. Default                                  : No
  227. Forced                                   : No
  228.  
  229. Text #11
  230. ID                                       : 14
  231. Format                                   : PGS
  232. Codec ID                                 : S_HDMV/PGS
  233. Codec ID/Info                            : Picture based subtitle format used on BDs/HD-DVDs
  234. Duration                                 : 2 h 13 min
  235. Bit rate                                 : 37.5 kb/s
  236. Count of elements                        : 1964
  237. Stream size                              : 35.9 MiB (0%)
  238. Title                                    : Danish
  239. Language                                 : Danish
  240. Default                                  : No
  241. Forced                                   : No
  242.  
  243. Text #12
  244. ID                                       : 15
  245. Format                                   : PGS
  246. Codec ID                                 : S_HDMV/PGS
  247. Codec ID/Info                            : Picture based subtitle format used on BDs/HD-DVDs
  248. Duration                                 : 2 h 13 min
  249. Bit rate                                 : 34.5 kb/s
  250. Count of elements                        : 1827
  251. Stream size                              : 33.1 MiB (0%)
  252. Title                                    : Finnish
  253. Language                                 : Finnish
  254. Default                                  : No
  255. Forced                                   : No
  256.  
  257. Text #13
  258. ID                                       : 16
  259. Format                                   : PGS
  260. Codec ID                                 : S_HDMV/PGS
  261. Codec ID/Info                            : Picture based subtitle format used on BDs/HD-DVDs
  262. Duration                                 : 2 h 13 min
  263. Bit rate                                 : 41.9 kb/s
  264. Count of elements                        : 2569
  265. Stream size                              : 40.1 MiB (0%)
  266. Title                                    : Norwegian
  267. Language                                 : Norwegian
  268. Default                                  : No
  269. Forced                                   : No
  270.  
  271. Text #14
  272. ID                                       : 17
  273. Format                                   : PGS
  274. Codec ID                                 : S_HDMV/PGS
  275. Codec ID/Info                            : Picture based subtitle format used on BDs/HD-DVDs
  276. Duration                                 : 2 h 13 min
  277. Bit rate                                 : 36.0 kb/s
  278. Count of elements                        : 2159
  279. Stream size                              : 34.5 MiB (0%)
  280. Title                                    : Swedish
  281. Language                                 : Swedish
  282. Default                                  : No
  283. Forced                                   : No
  284.  
  285. Text #15
  286. ID                                       : 18
  287. Format                                   : PGS
  288. Codec ID                                 : S_HDMV/PGS
  289. Codec ID/Info                            : Picture based subtitle format used on BDs/HD-DVDs
  290. Duration                                 : 2 h 15 min
  291. Bit rate                                 : 20.3 kb/s
  292. Count of elements                        : 2694
  293. Stream size                              : 19.6 MiB (0%)
  294. Title                                    : Chinese
  295. Language                                 : Chinese
  296. Default                                  : No
  297. Forced                                   : No
  298.  
  299. Text #16
  300. ID                                       : 19
  301. Format                                   : PGS
  302. Codec ID                                 : S_HDMV/PGS
  303. Codec ID/Info                            : Picture based subtitle format used on BDs/HD-DVDs
  304. Duration                                 : 2 h 15 min
  305. Bit rate                                 : 14.0 kb/s
  306. Count of elements                        : 2668
  307. Stream size                              : 13.6 MiB (0%)
  308. Title                                    : Korean
  309. Language                                 : Korean
  310. Default                                  : No
  311. Forced                                   : No
  312.  
  313. Text #17
  314. ID                                       : 20
  315. Format                                   : PGS
  316. Codec ID                                 : S_HDMV/PGS
  317. Codec ID/Info                            : Picture based subtitle format used on BDs/HD-DVDs
  318. Duration                                 : 2 h 15 min
  319. Bit rate                                 : 13.7 kb/s
  320. Count of elements                        : 2640
  321. Stream size                              : 13.3 MiB (0%)
  322. Title                                    : Arabic
  323. Language                                 : Arabic
  324. Default                                  : No
  325. Forced                                   : No
  326.  
  327. Text #18
  328. ID                                       : 21
  329. Format                                   : PGS
  330. Codec ID                                 : S_HDMV/PGS
  331. Codec ID/Info                            : Picture based subtitle format used on BDs/HD-DVDs
  332. Duration                                 : 2 h 13 min
  333. Bit rate                                 : 27.1 kb/s
  334. Count of elements                        : 2660
  335. Stream size                              : 25.9 MiB (0%)
  336. Title                                    : Indonesian
  337. Language                                 : Indonesian
  338. Default                                  : No
  339. Forced                                   : No
  340.  
  341. Text #19
  342. ID                                       : 22
  343. Format                                   : PGS
  344. Codec ID                                 : S_HDMV/PGS
  345. Codec ID/Info                            : Picture based subtitle format used on BDs/HD-DVDs
  346. Duration                                 : 2 h 15 min
  347. Bit rate                                 : 20.9 kb/s
  348. Count of elements                        : 2196
  349. Stream size                              : 20.2 MiB (0%)
  350. Title                                    : Bulgarian
  351. Language                                 : Bulgarian
  352. Default                                  : No
  353. Forced                                   : No
  354.  
  355. Text #20
  356. ID                                       : 23
  357. Format                                   : PGS
  358. Codec ID                                 : S_HDMV/PGS
  359. Codec ID/Info                            : Picture based subtitle format used on BDs/HD-DVDs
  360. Duration                                 : 2 h 15 min
  361. Bit rate                                 : 19.1 kb/s
  362. Count of elements                        : 2622
  363. Stream size                              : 18.5 MiB (0%)
  364. Title                                    : Croatian
  365. Language                                 : Croatian
  366. Default                                  : No
  367. Forced                                   : No
  368.  
  369. Text #21
  370. ID                                       : 24
  371. Format                                   : PGS
  372. Codec ID                                 : S_HDMV/PGS
  373. Codec ID/Info                            : Picture based subtitle format used on BDs/HD-DVDs
  374. Duration                                 : 2 h 15 min
  375. Bit rate                                 : 21.3 kb/s
  376. Count of elements                        : 2624
  377. Stream size                              : 20.6 MiB (0%)
  378. Title                                    : Czech
  379. Language                                 : Czech
  380. Default                                  : No
  381. Forced                                   : No
  382.  
  383. Text #22
  384. ID                                       : 25
  385. Format                                   : PGS
  386. Codec ID                                 : S_HDMV/PGS
  387. Codec ID/Info                            : Picture based subtitle format used on BDs/HD-DVDs
  388. Duration                                 : 2 h 15 min
  389. Bit rate                                 : 22.4 kb/s
  390. Count of elements                        : 2536
  391. Stream size                              : 21.7 MiB (0%)
  392. Title                                    : Estonian
  393. Language                                 : Estonian
  394. Default                                  : No
  395. Forced                                   : No
  396.  
  397. Text #23
  398. ID                                       : 26
  399. Format                                   : PGS
  400. Codec ID                                 : S_HDMV/PGS
  401. Codec ID/Info                            : Picture based subtitle format used on BDs/HD-DVDs
  402. Duration                                 : 2 h 15 min
  403. Bit rate                                 : 25.0 kb/s
  404. Count of elements                        : 2674
  405. Stream size                              : 24.2 MiB (0%)
  406. Title                                    : Greek
  407. Language                                 : Greek
  408. Default                                  : No
  409. Forced                                   : No
  410.  
  411. Text #24
  412. ID                                       : 27
  413. Format                                   : PGS
  414. Codec ID                                 : S_HDMV/PGS
  415. Codec ID/Info                            : Picture based subtitle format used on BDs/HD-DVDs
  416. Duration                                 : 2 h 15 min
  417. Bit rate                                 : 19.0 kb/s
  418. Count of elements                        : 2674
  419. Stream size                              : 18.3 MiB (0%)
  420. Title                                    : Hebrew
  421. Language                                 : Hebrew
  422. Default                                  : No
  423. Forced                                   : No
  424.  
  425. Text #25
  426. ID                                       : 28
  427. Format                                   : PGS
  428. Codec ID                                 : S_HDMV/PGS
  429. Codec ID/Info                            : Picture based subtitle format used on BDs/HD-DVDs
  430. Duration                                 : 2 h 15 min
  431. Bit rate                                 : 21.4 kb/s
  432. Count of elements                        : 2428
  433. Stream size                              : 20.7 MiB (0%)
  434. Title                                    : Hungarian
  435. Language                                 : Hungarian
  436. Default                                  : No
  437. Forced                                   : No
  438.  
  439. Text #26
  440. ID                                       : 29
  441. Format                                   : PGS
  442. Codec ID                                 : S_HDMV/PGS
  443. Codec ID/Info                            : Picture based subtitle format used on BDs/HD-DVDs
  444. Duration                                 : 2 h 13 min
  445. Bit rate                                 : 22.6 kb/s
  446. Count of elements                        : 2618
  447. Stream size                              : 21.7 MiB (0%)
  448. Title                                    : Icelandic
  449. Language                                 : Icelandic
  450. Default                                  : No
  451. Forced                                   : No
  452.  
  453. Text #27
  454. ID                                       : 30
  455. Format                                   : PGS
  456. Codec ID                                 : S_HDMV/PGS
  457. Codec ID/Info                            : Picture based subtitle format used on BDs/HD-DVDs
  458. Duration                                 : 2 h 15 min
  459. Bit rate                                 : 19.6 kb/s
  460. Count of elements                        : 2502
  461. Stream size                              : 19.0 MiB (0%)
  462. Title                                    : Latvian
  463. Language                                 : Latvian
  464. Default                                  : No
  465. Forced                                   : No
  466.  
  467. Text #28
  468. ID                                       : 31
  469. Format                                   : PGS
  470. Codec ID                                 : S_HDMV/PGS
  471. Codec ID/Info                            : Picture based subtitle format used on BDs/HD-DVDs
  472. Duration                                 : 2 h 15 min
  473. Bit rate                                 : 24.0 kb/s
  474. Count of elements                        : 2626
  475. Stream size                              : 23.2 MiB (0%)
  476. Title                                    : Lithuanian
  477. Language                                 : Lithuanian
  478. Default                                  : No
  479. Forced                                   : No
  480.  
  481. Text #29
  482. ID                                       : 32
  483. Format                                   : PGS
  484. Codec ID                                 : S_HDMV/PGS
  485. Codec ID/Info                            : Picture based subtitle format used on BDs/HD-DVDs
  486. Duration                                 : 2 h 15 min
  487. Bit rate                                 : 24.0 kb/s
  488. Count of elements                        : 2538
  489. Stream size                              : 23.2 MiB (0%)
  490. Title                                    : Polish
  491. Language                                 : Polish
  492. Default                                  : No
  493. Forced                                   : No
  494.  
  495. Text #30
  496. ID                                       : 33
  497. Format                                   : PGS
  498. Codec ID                                 : S_HDMV/PGS
  499. Codec ID/Info                            : Picture based subtitle format used on BDs/HD-DVDs
  500. Duration                                 : 2 h 15 min
  501. Bit rate                                 : 21.3 kb/s
  502. Count of elements                        : 2316
  503. Stream size                              : 20.6 MiB (0%)
  504. Title                                    : Romanian
  505. Language                                 : Romanian
  506. Default                                  : No
  507. Forced                                   : No
  508.  
  509. Text #31
  510. ID                                       : 34
  511. Format                                   : PGS
  512. Codec ID                                 : S_HDMV/PGS
  513. Codec ID/Info                            : Picture based subtitle format used on BDs/HD-DVDs
  514. Duration                                 : 2 h 15 min
  515. Bit rate                                 : 28.7 kb/s
  516. Count of elements                        : 2786
  517. Stream size                              : 27.8 MiB (0%)
  518. Title                                    : Russian
  519. Language                                 : Russian
  520. Default                                  : No
  521. Forced                                   : No
  522.  
  523. Text #32
  524. ID                                       : 35
  525. Format                                   : PGS
  526. Codec ID                                 : S_HDMV/PGS
  527. Codec ID/Info                            : Picture based subtitle format used on BDs/HD-DVDs
  528. Duration                                 : 2 h 15 min
  529. Bit rate                                 : 21.8 kb/s
  530. Count of elements                        : 2594
  531. Stream size                              : 21.1 MiB (0%)
  532. Title                                    : Serbian
  533. Language                                 : Serbian
  534. Default                                  : No
  535. Forced                                   : No
  536.  
  537. Text #33
  538. ID                                       : 36
  539. Format                                   : PGS
  540. Codec ID                                 : S_HDMV/PGS
  541. Codec ID/Info                            : Picture based subtitle format used on BDs/HD-DVDs
  542. Duration                                 : 2 h 15 min
  543. Bit rate                                 : 18.8 kb/s
  544. Count of elements                        : 2642
  545. Stream size                              : 18.2 MiB (0%)
  546. Title                                    : Slovenian
  547. Language                                 : Slovenian
  548. Default                                  : No
  549. Forced                                   : No
  550.  
  551. Text #34
  552. ID                                       : 37
  553. Format                                   : PGS
  554. Codec ID                                 : S_HDMV/PGS
  555. Codec ID/Info                            : Picture based subtitle format used on BDs/HD-DVDs
  556. Duration                                 : 2 h 15 min
  557. Bit rate                                 : 23.7 kb/s
  558. Count of elements                        : 2628
  559. Stream size                              : 22.9 MiB (0%)
  560. Title                                    : Thai
  561. Language                                 : Thai
  562. Default                                  : No
  563. Forced                                   : No
  564.  
  565. Text #35
  566. ID                                       : 38
  567. Format                                   : PGS
  568. Codec ID                                 : S_HDMV/PGS
  569. Codec ID/Info                            : Picture based subtitle format used on BDs/HD-DVDs
  570. Duration                                 : 2 h 15 min
  571. Bit rate                                 : 26.9 kb/s
  572. Count of elements                        : 2622
  573. Stream size                              : 26.0 MiB (0%)
  574. Title                                    : Turkish
  575. Language                                 : Turkish
  576. Default                                  : No
  577. Forced                                   : No
  578.  
  579. Menu
  580. 00:00:00.000                             : en:The Lottery
  581. 00:10:36.594                             : en:Tranquility Center
  582. 00:16:36.829                             : en:Back to Work
  583. 00:20:32.606                             : en:Tech Services
  584. 00:27:17.761                             : en:Nightlife
  585. 00:32:15.391                             : en:On the Loose
  586. 00:41:35.993                             : en:Contamination Alert
  587. 00:50:43.290                             : en:Albert Laurent
  588. 00:56:33.390                             : en:Aces & Spades
  589. 01:05:39.226                             : en:Train Station
  590. 01:11:58.939                             : en:Information Directory
  591. 01:18:32.207                             : en:Tough Day
  592. 01:28:36.436                             : en:Your Insurance Policy
  593. 01:34:40.925                             : en:Thought I Was Taller
  594. 01:40:26.729                             : en:Worth Every Penny
  595. 01:46:44.564                             : en:Recall
  596. 01:53:10.325                             : en:Too Bad
  597. 01:58:47.995                             : en:A Disturbance
  598. 02:03:24.063                             : en:My Name Is Lincoln
  599. 02:09:53.744                             : en:End Credits
RAW Paste Data
We use cookies for various purposes including analytics. By continuing to use Pastebin, you agree to our use of cookies as described in the Cookies Policy. OK, I Understand
 
Top