Guest User

[Cleo] Uchuu Senkan Yamato 2199 S01E01

a guest
Nov 24th, 2017
179
Never
Not a member of Pastebin yet? Sign Up, it unlocks many cool features!
  1. General
  2. Unique ID : 201414473014376623783443340830408572581 (0x978704381B955172B084780E1129FEA5)
  3. Complete name : [Cleo]Uchuu_Senkan_Yamato_2199_-_01_(10bit_BD1080p_x265).mkv
  4. Format : Matroska
  5. Format version : Version 4 / Version 2
  6. File size : 300 MiB
  7. Duration : 24 min 36 s
  8. Overall bit rate : 1 703 kb/s
  9. Encoded date : UTC 2017-11-14 20:05:21
  10. Writing application : mkvmerge v15.0.0 ('Duel with the Devil') 64-bit
  11. Writing library : libebml v1.3.5 + libmatroska v1.4.5
  12.  
  13. Video
  14. ID : 1
  15. Format : HEVC
  16. Format/Info : High Efficiency Video Coding
  17. Format profile : Main 10@L6.2@High
  18. Codec ID : V_MPEGH/ISO/HEVC
  19. Duration : 24 min 36 s
  20. Bit rate : 1 589 kb/s
  21. Width : 1 920 pixels
  22. Height : 1 080 pixels
  23. Display aspect ratio : 16:9
  24. Frame rate mode : Constant
  25. Frame rate : 23.976 (24000/1001) FPS
  26. Color space : YUV
  27. Chroma subsampling : 4:2:0
  28. Bit depth : 10 bits
  29. Bits/(Pixel*Frame) : 0.032
  30. Stream size : 280 MiB (93%)
  31. Writing library : x265 2.5+14-2718cb5dd67f:[Windows][GCC 7.1.0][64 bit] 10bit
  32. Encoding settings : cpuid=1050111 / frame-threads=3 / numa-pools=8 / wpp / no-pmode / no-pme / no-psnr / no-ssim / log-level=2 / input-csp=1 / input-res=1920x1080 / interlace=0 / total-frames=35392 / level-idc=62 / high-tier=1 / uhd-bd=0 / ref=3 / no-allow-non-conformance / no-repeat-headers / annexb / no-aud / no-hrd / info / hash=0 / no-temporal-layers / open-gop / min-keyint=23 / keyint=250 / bframes=4 / b-adapt=2 / b-pyramid / bframe-bias=0 / rc-lookahead=20 / lookahead-slices=6 / scenecut=40 / no-intra-refresh / ctu=64 / min-cu-size=8 / no-rect / no-amp / max-tu-size=32 / tu-inter-depth=1 / tu-intra-depth=1 / limit-tu=0 / rdoq-level=0 / dynamic-rd=0.00 / no-ssim-rd / signhide / no-tskip / nr-intra=0 / nr-inter=0 / no-constrained-intra / strong-intra-smoothing / max-merge=2 / limit-refs=3 / no-limit-modes / me=1 / subme=2 / merange=57 / temporal-mvp / weightp / no-weightb / no-analyze-src-pics / deblock=0:0 / sao / no-sao-non-deblock / rd=3 / no-early-skip / rskip / no-fast-intra / no-tskip-fast / no-cu-lossless / no-b-intra / no-splitrd-skip / rdpenalty=0 / psy-rd=2.00 / psy-rdoq=0.00 / no-rd-refine / analysis-reuse-mode=0 / no-lossless / cbqpoffs=0 / crqpoffs=0 / rc=crf / crf=22.0 / qcomp=0.60 / qpstep=4 / stats-write=0 / stats-read=0 / vbv-maxrate=800000 / vbv-bufsize=800000 / vbv-init=0.9 / crf-max=0.0 / crf-min=0.0 / ipratio=1.40 / pbratio=1.30 / aq-mode=2 / aq-strength=1.00 / cutree / zone-count=0 / no-strict-cbr / qg-size=32 / no-rc-grain / qpmax=69 / qpmin=0 / no-const-vbv / sar=0 / overscan=0 / videoformat=5 / range=0 / colorprim=2 / transfer=2 / colormatrix=2 / chromaloc=0 / display-window=0 / max-cll=0,0 / min-luma=0 / max-luma=1023 / log2-max-poc-lsb=8 / vui-timing-info / vui-hrd-info / slices=1 / opt-qp-pps / opt-ref-list-length-pps / no-multi-pass-opt-rps / scenecut-bias=0.05 / no-opt-cu-delta-qp / no-aq-motion / no-hdr / no-hdr-opt / no-dhdr10-opt / analysis-reuse-level=5 / scale-factor=0 / refine-intra=0 / refine-inter=0 / refine-mv=0 / no-limit-sao / ctu-info=0
  33. Default : Yes
  34. Forced : No
  35.  
  36. Audio
  37. ID : 2
  38. Format : AAC
  39. Format/Info : Advanced Audio Codec
  40. Format profile : LC
  41. Codec ID : A_AAC-2
  42. Duration : 24 min 36 s
  43. Bit rate : 101 kb/s
  44. Channel(s) : 2 channels
  45. Channel positions : Front: L R
  46. Sampling rate : 48.0 kHz
  47. Frame rate : 46.875 FPS (1024 SPF)
  48. Compression mode : Lossy
  49. Delay relative to video : 9 ms
  50. Stream size : 17.8 MiB (6%)
  51. Language : Japanese
  52. Default : No
  53. Forced : No
  54.  
  55. Text
  56. ID : 3
  57. Format : PGS
  58. Muxing mode : zlib
  59. Codec ID : S_HDMV/PGS
  60. Codec ID/Info : Picture based subtitle format used on BDs/HD-DVDs
  61. Duration : 24 min 22 s
  62. Bit rate : 41.2 kb/s
  63. Count of elements : 562
  64. Stream size : 7.19 MiB (2%)
  65. Language : English
  66. Default : Yes
  67. Forced : No
RAW Paste Data