daily pastebin goal
19%
SHARE
TWEET

Untitled

a guest Jan 12th, 2018 270 Never
Not a member of Pastebin yet? Sign Up, it unlocks many cool features!
  1. General
  2. Unique ID : 216877156260456315110255783470261667589 (0xA329055CF33AF4A1A6D7640448350705)
  3. Complete name : the.x-files.s01e01.1080p.bluray.x264-rovers.mkv
  4. Format : Matroska
  5. Format version : Version 4 / Version 2
  6. File size : 3.97 GiB
  7. Duration : 48mn 14s
  8. Overall bit rate : 11.8 Mbps
  9. Encoded date : UTC 2015-11-25 06:10:13
  10. Writing application : mkvmerge v8.3.0 ('Over the Horizon') 64bit
  11. Writing library : libebml v1.3.1 + libmatroska v1.4.2
  12. DURATION : 00:48:14.230000000
  13. NUMBER_OF_FRAMES : 271334
  14. NUMBER_OF_BYTES : 545924008
  15. _STATISTICS_WRITING_APP : mkvmerge v8.3.0 ('Over the Horizon') 64bit
  16. _STATISTICS_WRITING_DATE_UTC : 2015-11-25 06:10:13
  17. _STATISTICS_TAGS : BPS DURATION NUMBER_OF_FRAMES NUMBER_OF_BYTES
  18.  
  19. Video
  20. ID : 1
  21. Format : AVC
  22. Format/Info : Advanced Video Codec
  23. Format profile : High@L4.1
  24. Format settings, CABAC : Yes
  25. Format settings, ReFrames : 4 frames
  26. Codec ID : V_MPEG4/ISO/AVC
  27. Duration : 48mn 14s
  28. Bit rate : 10.3 Mbps
  29. Width : 1 920 pixels
  30. Height : 1 080 pixels
  31. Display aspect ratio : 16:9
  32. Frame rate mode : Constant
  33. Frame rate : 23.976 fps
  34. Color space : YUV
  35. Chroma subsampling : 4:2:0
  36. Bit depth : 8 bits
  37. Scan type : Progressive
  38. Bits/(Pixel*Frame) : 0.207
  39. Stream size : 3.38 GiB (85%)
  40. Writing library : x264 core 148 r2638 7599210
  41. Encoding settings : cabac=1 / ref=4 / deblock=1:0:0 / analyse=0x3:0x133 / me=umh / subme=7 / psy=1 / psy_rd=1.00:0.00 / mixed_ref=1 / me_range=16 / chroma_me=1 / trellis=1 / 8x8dct=1 / cqm=0 / deadzone=21,11 / fast_pskip=0 / chroma_qp_offset=-2 / threads=18 / lookahead_threads=3 / sliced_threads=0 / nr=0 / decimate=1 / interlaced=0 / bluray_compat=0 / constrained_intra=0 / bframes=3 / b_pyramid=2 / b_adapt=1 / b_bias=0 / direct=1 / weightb=1 / open_gop=0 / weightp=2 / keyint=250 / keyint_min=23 / scenecut=40 / intra_refresh=0 / rc_lookahead=40 / rc=2pass / mbtree=1 / bitrate=10273 / ratetol=1.0 / qcomp=0.60 / qpmin=0 / qpmax=69 / qpstep=4 / cplxblur=20.0 / qblur=0.5 / ip_ratio=1.40 / aq=1:1.00
  42. Language : English
  43. Default : Yes
  44. Forced : No
  45. DURATION : 00:48:14.188000000
  46. NUMBER_OF_FRAMES : 69391
  47. NUMBER_OF_BYTES : 3715034343
  48. _STATISTICS_WRITING_APP : mkvmerge v8.3.0 ('Over the Horizon') 64bit
  49. _STATISTICS_WRITING_DATE_UTC : 2015-11-25 06:10:13
  50. _STATISTICS_TAGS : BPS DURATION NUMBER_OF_FRAMES NUMBER_OF_BYTES
  51.  
  52. Audio
  53. ID : 2
  54. Format : DTS
  55. Format/Info : Digital Theater Systems
  56. Mode : 16
  57. Format settings, Endianness : Big
  58. Codec ID : A_DTS
  59. Duration : 48mn 14s
  60. Bit rate mode : Constant
  61. Bit rate : 1 509 Kbps
  62. Channel(s) : 6 channels
  63. Channel positions : Front: L C R, Side: L R, LFE
  64. Sampling rate : 48.0 KHz
  65. Bit depth : 24 bits
  66. Compression mode : Lossy
  67. Stream size : 521 MiB (13%)
  68. Language : English
  69. Default : Yes
  70. Forced : No
  71.  
  72. Menu
  73. 00:00:00.000 : en:00:00:00.000
  74. 00:02:17.262 : en:00:02:17.262
  75. 00:11:36.321 : en:00:11:36.321
  76. 00:14:44.801 : en:00:14:44.801
  77. 00:17:05.816 : en:00:17:05.816
  78. 00:20:18.551 : en:00:20:18.551
  79. 00:23:24.320 : en:00:23:24.320
  80. 00:30:35.709 : en:00:30:35.709
  81. 00:34:33.905 : en:00:34:33.905
  82. 00:38:44.822 : en:00:38:44.822
  83. 00:43:43.454 : en:00:43:43.454
  84. 00:47:45.237 : en:00:47:45.237
  85.  
  86.  
  87. option 2
RAW Paste Data
We use cookies for various purposes including analytics. By continuing to use Pastebin, you agree to our use of cookies as described in the Cookies Policy. OK, I Understand
 
Top