SHARE
TWEET

Blame - Progression Sessions 02 [Instrumental]

soberski Sep 9th, 2012 128 Never
Not a member of Pastebin yet? Sign Up, it unlocks many cool features!
  1. REM GENRE Drum & Bass
  2. REM DATE 2000
  3. REM DISCID 790EA409
  4. REM COMMENT ExactAudioCopy v0.95b2
  5. PERFORMER "Blame"
  6. TITLE "Progression Sessions 02 - CD2 [Instrumental]"
  7. FILE "Blame - Progression Sessions 02 [Instrumental].ogg" WAVE
  8.   TRACK 01 AUDIO
  9.     TITLE "Sun Stars"
  10.     PERFORMER "Artemis"
  11.     INDEX 01 00:00:00
  12.   TRACK 02 AUDIO
  13.     TITLE "Object"
  14.     PERFORMER "Odyssey"
  15.     INDEX 01 07:29:25
  16.   TRACK 03 AUDIO
  17.     TITLE "Centuries"
  18.     PERFORMER "Blame"
  19.     INDEX 01 14:13:17
  20.   TRACK 04 AUDIO
  21.     TITLE "Algebra"
  22.     PERFORMER "Total Science"
  23.     INDEX 01 20:35:27
  24.   TRACK 05 AUDIO
  25.     TITLE "Beneath The Surface"
  26.     PERFORMER "PHD"
  27.     INDEX 01 27:41:60
  28.   TRACK 06 AUDIO
  29.     TITLE "Butterflies & Moths"
  30.     PERFORMER "Blu Mar Ten"
  31.     INDEX 01 34:48:65
  32.   TRACK 07 AUDIO
  33.     TITLE "Orbiting Probes"
  34.     PERFORMER "KMC"
  35.     INDEX 01 40:51:22
  36.   TRACK 08 AUDIO
  37.     TITLE "Ritual"
  38.     PERFORMER "Odyssey"
  39.     INDEX 01 49:51:22
  40.   TRACK 09 AUDIO
  41.     TITLE "Between Words"
  42.     PERFORMER "Blame"
  43.     INDEX 01 55:48:65
RAW Paste Data
We use cookies for various purposes including analytics. By continuing to use Pastebin, you agree to our use of cookies as described in the Cookies Policy. OK, I Understand
Top