Guest User

MediaInfo album

a guest
Oct 20th, 2021
10
Never
Not a member of Pastebin yet? Sign Up, it unlocks many cool features!
  1. General
  2. Complete name : D:\Downloads\Music\Carbon - Portrete si Schite - 2oo4 © Independent\01.Portrete si Schite - 2oo4.mp3
  3. Format : MPEG Audio
  4. File size : 904 KiB
  5. Duration : 57 s 809 ms
  6. Overall bit rate mode : Constant
  7. Overall bit rate : 128 kb/s
  8. Album : Portrete si Schite
  9. Track name : Intro
  10. Track name/Position : 1
  11. Performer : Carbon
  12. Genre : Rap
  13. Recorded date : 2004
  14. Comment : by Samurai Jack Masta
  15.  
  16. Audio
  17. Format : MPEG Audio
  18. Format version : Version 1
  19. Format profile : Layer 3
  20. Format settings : Joint stereo / MS Stereo
  21. Duration : 57 s 809 ms
  22. Bit rate mode : Constant
  23. Bit rate : 128 kb/s
  24. Channel(s) : 2 channels
  25. Sampling rate : 44.1 kHz
  26. Frame rate : 38.281 FPS (1152 SPF)
  27. Compression mode : Lossy
  28. Stream size : 903 KiB (100%)
  29.  
  30. General
  31. Complete name : D:\Downloads\Music\Carbon - Portrete si Schite - 2oo4 © Independent\02.Portrete si Schite - 2oo4.mp3
  32. Format : MPEG Audio
  33. File size : 1.79 MiB
  34. Duration : 1 min 57 s
  35. Overall bit rate mode : Constant
  36. Overall bit rate : 128 kb/s
  37. Album : Portrete si Schite
  38. Track name : Salut
  39. Track name/Position : 2
  40. Performer : Carbon
  41. Genre : Rap
  42. Recorded date : 2004
  43. Comment : by Samurai Jack Masta
  44.  
  45. Audio
  46. Format : MPEG Audio
  47. Format version : Version 1
  48. Format profile : Layer 3
  49. Format settings : Joint stereo / MS Stereo
  50. Duration : 1 min 57 s
  51. Bit rate mode : Constant
  52. Bit rate : 128 kb/s
  53. Channel(s) : 2 channels
  54. Sampling rate : 44.1 kHz
  55. Frame rate : 38.281 FPS (1152 SPF)
  56. Compression mode : Lossy
  57. Stream size : 1.79 MiB (100%)
  58.  
  59. General
  60. Complete name : D:\Downloads\Music\Carbon - Portrete si Schite - 2oo4 © Independent\03.Portrete si Schite - 2oo4.mp3
  61. Format : MPEG Audio
  62. File size : 3.20 MiB
  63. Duration : 3 min 29 s
  64. Overall bit rate mode : Constant
  65. Overall bit rate : 128 kb/s
  66. Album : Portrete si Schite
  67. Track name : Cu Zece Degete
  68. Track name/Position : 3
  69. Performer : Carbon
  70. Genre : Rap
  71. Recorded date : 2004
  72. Comment : by Samurai Jack Masta
  73.  
  74. Audio
  75. Format : MPEG Audio
  76. Format version : Version 1
  77. Format profile : Layer 3
  78. Format settings : Joint stereo / MS Stereo
  79. Duration : 3 min 29 s
  80. Bit rate mode : Constant
  81. Bit rate : 128 kb/s
  82. Channel(s) : 2 channels
  83. Sampling rate : 44.1 kHz
  84. Frame rate : 38.281 FPS (1152 SPF)
  85. Compression mode : Lossy
  86. Stream size : 3.19 MiB (100%)
  87.  
  88. General
  89. Complete name : D:\Downloads\Music\Carbon - Portrete si Schite - 2oo4 © Independent\04.Portrete si Schite - 2oo4.mp3
  90. Format : MPEG Audio
  91. File size : 658 KiB
  92. Duration : 42 s 83 ms
  93. Overall bit rate mode : Constant
  94. Overall bit rate : 128 kb/s
  95. Album : Portrete si Schite
  96. Track name : Trecere
  97. Track name/Position : 4
  98. Performer : Carbon
  99. Genre : Rap
  100. Recorded date : 2004
  101. Comment : by Samurai Jack Masta
  102.  
  103. Audio
  104. Format : MPEG Audio
  105. Format version : Version 1
  106. Format profile : Layer 3
  107. Format settings : Joint stereo / MS Stereo
  108. Duration : 42 s 83 ms
  109. Bit rate mode : Constant
  110. Bit rate : 128 kb/s
  111. Channel(s) : 2 channels
  112. Sampling rate : 44.1 kHz
  113. Frame rate : 38.281 FPS (1152 SPF)
  114. Compression mode : Lossy
  115. Stream size : 658 KiB (100%)
  116.  
  117. General
  118. Complete name : D:\Downloads\Music\Carbon - Portrete si Schite - 2oo4 © Independent\05.Portrete si Schite - 2oo4.mp3
  119. Format : MPEG Audio
  120. File size : 1.52 MiB
  121. Duration : 1 min 39 s
  122. Overall bit rate mode : Constant
  123. Overall bit rate : 128 kb/s
  124. Album : Portrete si Schite
  125. Track name : Extraterestrii
  126. Track name/Position : 5
  127. Performer : Carbon
  128. Genre : Rap
  129. Recorded date : 2004
  130. Comment : by Samurai Jack Masta
  131.  
  132. Audio
  133. Format : MPEG Audio
  134. Format version : Version 1
  135. Format profile : Layer 3
  136. Format settings : Joint stereo / MS Stereo
  137. Duration : 1 min 39 s
  138. Bit rate mode : Constant
  139. Bit rate : 128 kb/s
  140. Channel(s) : 2 channels
  141. Sampling rate : 44.1 kHz
  142. Frame rate : 38.281 FPS (1152 SPF)
  143. Compression mode : Lossy
  144. Stream size : 1.51 MiB (100%)
  145.  
  146. General
  147. Complete name : D:\Downloads\Music\Carbon - Portrete si Schite - 2oo4 © Independent\06.Portrete si Schite - 2oo4.mp3
  148. Format : MPEG Audio
  149. File size : 3.61 MiB
  150. Duration : 3 min 56 s
  151. Overall bit rate mode : Constant
  152. Overall bit rate : 128 kb/s
  153. Album : Portrete si Schite
  154. Track name : Personajul Favorit
  155. Track name/Position : 6
  156. Performer : Carbon
  157. Genre : Rap
  158. Recorded date : 2004
  159. Comment : by Samurai Jack Masta
  160.  
  161. Audio
  162. Format : MPEG Audio
  163. Format version : Version 1
  164. Format profile : Layer 3
  165. Format settings : Joint stereo / MS Stereo
  166. Duration : 3 min 56 s
  167. Bit rate mode : Constant
  168. Bit rate : 128 kb/s
  169. Channel(s) : 2 channels
  170. Sampling rate : 44.1 kHz
  171. Frame rate : 38.281 FPS (1152 SPF)
  172. Compression mode : Lossy
  173. Stream size : 3.61 MiB (100%)
  174.  
  175. General
  176. Complete name : D:\Downloads\Music\Carbon - Portrete si Schite - 2oo4 © Independent\07.Portrete si Schite - 2oo4.mp3
  177. Format : MPEG Audio
  178. File size : 1.24 MiB
  179. Duration : 1 min 20 s
  180. Overall bit rate mode : Constant
  181. Overall bit rate : 128 kb/s
  182. Album : Portrete si Schite
  183. Track name : Sida
  184. Track name/Position : 7
  185. Performer : Carbon
  186. Genre : Rap
  187. Recorded date : 2004
  188. Comment : by Samurai Jack Masta
  189.  
  190. Audio
  191. Format : MPEG Audio
  192. Format version : Version 1
  193. Format profile : Layer 3
  194. Format settings : Joint stereo / MS Stereo
  195. Duration : 1 min 20 s
  196. Bit rate mode : Constant
  197. Bit rate : 128 kb/s
  198. Channel(s) : 2 channels
  199. Sampling rate : 44.1 kHz
  200. Frame rate : 38.281 FPS (1152 SPF)
  201. Compression mode : Lossy
  202. Stream size : 1.24 MiB (100%)
  203.  
  204. General
  205. Complete name : D:\Downloads\Music\Carbon - Portrete si Schite - 2oo4 © Independent\08.Portrete si Schite - 2oo4.mp3
  206. Format : MPEG Audio
  207. File size : 2.57 MiB
  208. Duration : 2 min 48 s
  209. Overall bit rate mode : Constant
  210. Overall bit rate : 128 kb/s
  211. Album : Portrete si Schite
  212. Track name : Autoportret
  213. Track name/Position : 8
  214. Performer : Carbon
  215. Genre : Rap
  216. Recorded date : 2004
  217. Comment : by Samurai Jack Masta
  218.  
  219. Audio
  220. Format : MPEG Audio
  221. Format version : Version 1
  222. Format profile : Layer 3
  223. Format settings : Joint stereo / MS Stereo
  224. Duration : 2 min 48 s
  225. Bit rate mode : Constant
  226. Bit rate : 128 kb/s
  227. Channel(s) : 2 channels
  228. Sampling rate : 44.1 kHz
  229. Frame rate : 38.281 FPS (1152 SPF)
  230. Compression mode : Lossy
  231. Stream size : 2.57 MiB (100%)
  232.  
  233. General
  234. Complete name : D:\Downloads\Music\Carbon - Portrete si Schite - 2oo4 © Independent\09.Portrete si Schite - 2oo4.mp3
  235. Format : MPEG Audio
  236. File size : 7.19 MiB
  237. Duration : 7 min 51 s
  238. Overall bit rate mode : Constant
  239. Overall bit rate : 128 kb/s
  240. Album : Portrete si Schite
  241. Track name : Trebuie Sa Va Distrati
  242. Track name/Position : 9
  243. Performer : Carbon
  244. Genre : Rap
  245. Recorded date : 2004
  246. Comment : by Samurai Jack Masta
  247.  
  248. Audio
  249. Format : MPEG Audio
  250. Format version : Version 1
  251. Format profile : Layer 3
  252. Format settings : Joint stereo / MS Stereo
  253. Duration : 7 min 51 s
  254. Bit rate mode : Constant
  255. Bit rate : 128 kb/s
  256. Channel(s) : 2 channels
  257. Sampling rate : 44.1 kHz
  258. Frame rate : 38.281 FPS (1152 SPF)
  259. Compression mode : Lossy
  260. Stream size : 7.19 MiB (100%)
  261.  
  262. General
  263. Complete name : D:\Downloads\Music\Carbon - Portrete si Schite - 2oo4 © Independent\10.Portrete si Schite - 2oo4.mp3
  264. Format : MPEG Audio
  265. File size : 3.73 MiB
  266. Duration : 4 min 4 s
  267. Overall bit rate mode : Constant
  268. Overall bit rate : 128 kb/s
  269. Album : Portrete si Schite
  270. Track name : Tiganii
  271. Track name/Position : 10
  272. Performer : Carbon
  273. Genre : Rap
  274. Recorded date : 2004
  275. Comment : by Samurai Jack Masta
  276.  
  277. Audio
  278. Format : MPEG Audio
  279. Format version : Version 1
  280. Format profile : Layer 3
  281. Format settings : Joint stereo / MS Stereo
  282. Duration : 4 min 4 s
  283. Bit rate mode : Constant
  284. Bit rate : 128 kb/s
  285. Channel(s) : 2 channels
  286. Sampling rate : 44.1 kHz
  287. Frame rate : 38.281 FPS (1152 SPF)
  288. Compression mode : Lossy
  289. Stream size : 3.73 MiB (100%)
  290.  
  291. General
  292. Complete name : D:\Downloads\Music\Carbon - Portrete si Schite - 2oo4 © Independent\11.Portrete si Schite - 2oo4.mp3
  293. Format : MPEG Audio
  294. File size : 1.63 MiB
  295. Duration : 1 min 46 s
  296. Overall bit rate mode : Constant
  297. Overall bit rate : 128 kb/s
  298. Album : Portrete si Schite
  299. Track name : Din Lumea Celor Mici
  300. Track name/Position : 11
  301. Performer : Carbon
  302. Genre : Rap
  303. Recorded date : 2004
  304. Comment : by Samurai Jack Masta
  305.  
  306. Audio
  307. Format : MPEG Audio
  308. Format version : Version 1
  309. Format profile : Layer 3
  310. Format settings : Joint stereo / MS Stereo
  311. Duration : 1 min 46 s
  312. Bit rate mode : Constant
  313. Bit rate : 128 kb/s
  314. Channel(s) : 2 channels
  315. Sampling rate : 44.1 kHz
  316. Frame rate : 38.281 FPS (1152 SPF)
  317. Compression mode : Lossy
  318. Stream size : 1.62 MiB (100%)
  319.  
  320. General
  321. Complete name : D:\Downloads\Music\Carbon - Portrete si Schite - 2oo4 © Independent\12.Portrete si Schite - 2oo4.mp3
  322. Format : MPEG Audio
  323. File size : 840 KiB
  324. Duration : 53 s 681 ms
  325. Overall bit rate mode : Constant
  326. Overall bit rate : 128 kb/s
  327. Album : Portrete si Schite
  328. Track name : Joint
  329. Track name/Position : 12
  330. Performer : Carbon
  331. Genre : Rap
  332. Recorded date : 2004
  333. Comment : by Samurai Jack Masta
  334.  
  335. Audio
  336. Format : MPEG Audio
  337. Format version : Version 1
  338. Format profile : Layer 3
  339. Format settings : Joint stereo / MS Stereo
  340. Duration : 53 s 682 ms
  341. Bit rate mode : Constant
  342. Bit rate : 128 kb/s
  343. Channel(s) : 2 channels
  344. Sampling rate : 44.1 kHz
  345. Frame rate : 38.281 FPS (1152 SPF)
  346. Compression mode : Lossy
  347. Stream size : 839 KiB (100%)
  348.  
  349. General
  350. Complete name : D:\Downloads\Music\Carbon - Portrete si Schite - 2oo4 © Independent\13.Portrete si Schite - 2oo4.mp3
  351. Format : MPEG Audio
  352. File size : 1.12 MiB
  353. Duration : 1 min 13 s
  354. Overall bit rate mode : Constant
  355. Overall bit rate : 128 kb/s
  356. Album : Portrete si Schite
  357. Track name : Leo si Invitatii
  358. Track name/Position : 13
  359. Performer : Carbon
  360. Genre : Rap
  361. Recorded date : 2004
  362. Comment : by Samurai Jack Masta
  363.  
  364. Audio
  365. Format : MPEG Audio
  366. Format version : Version 1
  367. Format profile : Layer 3
  368. Format settings : Joint stereo / MS Stereo
  369. Duration : 1 min 13 s
  370. Bit rate mode : Constant
  371. Bit rate : 128 kb/s
  372. Channel(s) : 2 channels
  373. Sampling rate : 44.1 kHz
  374. Frame rate : 38.281 FPS (1152 SPF)
  375. Compression mode : Lossy
  376. Stream size : 1.12 MiB (100%)
  377.  
  378. General
  379. Complete name : D:\Downloads\Music\Carbon - Portrete si Schite - 2oo4 © Independent\14.Portrete si Schite - 2oo4.mp3
  380. Format : MPEG Audio
  381. File size : 4.19 MiB
  382. Duration : 4 min 34 s
  383. Overall bit rate mode : Constant
  384. Overall bit rate : 128 kb/s
  385. Album : Portrete si Schite
  386. Track name : Ultima Misiune
  387. Track name/Position : 14
  388. Performer : Carbon
  389. Genre : Rap
  390. Recorded date : 2004
  391. Comment : by Samurai Jack Masta
  392.  
  393. Audio
  394. Format : MPEG Audio
  395. Format version : Version 1
  396. Format profile : Layer 3
  397. Format settings : Joint stereo / MS Stereo
  398. Duration : 4 min 34 s
  399. Bit rate mode : Constant
  400. Bit rate : 128 kb/s
  401. Channel(s) : 2 channels
  402. Sampling rate : 44.1 kHz
  403. Frame rate : 38.281 FPS (1152 SPF)
  404. Compression mode : Lossy
  405. Stream size : 4.19 MiB (100%)
  406.  
  407. General
  408. Complete name : D:\Downloads\Music\Carbon - Portrete si Schite - 2oo4 © Independent\15.Portrete si Schite - 2oo4.mp3
  409. Format : MPEG Audio
  410. File size : 2.69 MiB
  411. Duration : 2 min 56 s
  412. Overall bit rate mode : Constant
  413. Overall bit rate : 128 kb/s
  414. Album : Portrete si Schite
  415. Track name : La Tara
  416. Track name/Position : 15
  417. Performer : Carbon
  418. Genre : Rap
  419. Recorded date : 2004
  420. Comment : by Samurai Jack Masta
  421.  
  422. Audio
  423. Format : MPEG Audio
  424. Format version : Version 1
  425. Format profile : Layer 3
  426. Format settings : Joint stereo / MS Stereo
  427. Duration : 2 min 56 s
  428. Bit rate mode : Constant
  429. Bit rate : 128 kb/s
  430. Channel(s) : 2 channels
  431. Sampling rate : 44.1 kHz
  432. Frame rate : 38.281 FPS (1152 SPF)
  433. Compression mode : Lossy
  434. Stream size : 2.69 MiB (100%)
  435.  
  436.  
RAW Paste Data