SHARE
TWEET

Untitled

a guest Oct 22nd, 2019 103 Never
Not a member of Pastebin yet? Sign Up, it unlocks many cool features!
  1. General
  2. Unique ID                                : 141803644267295839294492296424626081765 (0x6AAE6372E2A96752FDF0E59DC4404FE5)
  3. Complete name                            : Transit.17.2019.720p.WEB-DL.H264.AC3-EVO
  4. Format                                   : Matroska
  5. Format version                           : Version 4
  6. File size                                : 2.50 GiB
  7. Duration                                 : 1 h 24 min
  8. Overall bit rate                         : 4 227 kb/s
  9. Encoded date                             : UTC 2019-10-22 16:13:21
  10. Writing application                      : mkvmerge v35.0.0 ('All The Love In The World') 64-bit
  11. Writing library                          : libebml v1.3.9 + libmatroska v1.5.2
  12.  
  13. Video
  14. ID                                       : 3
  15. Format                                   : AVC
  16. Format/Info                              : Advanced Video Codec
  17. Format profile                           : Main@L3.1
  18. Format settings                          : 2 Ref Frames
  19. Format settings, CABAC                   : No
  20. Format settings, Reference frames        : 2 frames
  21. Format settings, GOP                     : N=1
  22. Codec ID                                 : V_MPEG4/ISO/AVC
  23. Duration                                 : 1 h 24 min
  24. Bit rate                                 : 4 033 kb/s
  25. Width                                    : 1 280 pixels
  26. Height                                   : 530 pixels
  27. Display aspect ratio                     : 2.40:1
  28. Frame rate mode                          : Constant
  29. Frame rate                               : 23.976 FPS
  30. Color space                              : YUV
  31. Chroma subsampling                       : 4:2:0
  32. Bit depth                                : 8 bits
  33. Scan type                                : Progressive
  34. Bits/(Pixel*Frame)                       : 0.248
  35. Stream size                              : 2.39 GiB (95%)
  36. Language                                 : English
  37. Default                                  : Yes
  38. Forced                                   : No
  39. Color range                              : Limited
  40. Color primaries                          : BT.709
  41. Transfer characteristics                 : BT.709
  42. Matrix coefficients                      : BT.709
  43.  
  44. Audio
  45. ID                                       : 2
  46. Format                                   : AC-3
  47. Format/Info                              : Audio Coding 3
  48. Commercial name                          : Dolby Digital
  49. Codec ID                                 : A_AC3
  50. Duration                                 : 1 h 24 min
  51. Bit rate mode                            : Constant
  52. Bit rate                                 : 192 kb/s
  53. Channel(s)                               : 2 channels
  54. Channel layout                           : L R
  55. Sampling rate                            : 48.0 kHz
  56. Frame rate                               : 31.250 FPS (1536 SPF)
  57. Compression mode                         : Lossy
  58. Stream size                              : 117 MiB (5%)
  59. Service kind                             : Complete Main
  60. Default                                  : Yes
  61. Forced                                   : No
  62.  
  63. Text
  64. ID                                       : 1
  65. Format                                   : UTF-8
  66. Codec ID                                 : S_TEXT/UTF8
  67. Codec ID/Info                            : UTF-8 Plain Text
  68. Duration                                 : 1 h 22 min
  69. Bit rate                                 : 85 b/s
  70. Count of elements                        : 1663
  71. Stream size                              : 52.1 KiB (0%)
  72. Language                                 : English
  73. Default                                  : Yes
  74. Forced                                   : No
  75.  
  76. Menu
  77. 00:00:00.000                             : en:1
  78. 00:06:36.000                             : en:2
  79. 00:12:10.000                             : en:3
  80. 00:18:09.000                             : en:4
  81. 00:21:20.000                             : en:5
  82. 00:27:02.000                             : en:6
  83. 00:32:53.000                             : en:7
  84. 00:38:58.000                             : en:8
  85. 00:44:18.000                             : en:9
  86. 00:48:47.000                             : en:10
  87. 00:54:05.000                             : en:11
  88. 01:00:50.000                             : en:12
  89. 01:05:00.000                             : en:13
  90. 01:10:16.000                             : en:14
  91. 01:15:47.000                             : en:15
  92. 01:22:55.000                             : en:16
RAW Paste Data
We use cookies for various purposes including analytics. By continuing to use Pastebin, you agree to our use of cookies as described in the Cookies Policy. OK, I Understand
Not a member of Pastebin yet?
Sign Up, it unlocks many cool features!
 
Top