Guest User

Untitled

a guest
Nov 10th, 2016
152
Never
Not a member of Pastebin yet? Sign Up, it unlocks many cool features!
  1. General
  2. Unique ID : 243731773837636918334635161299215134856 (0xB75D083BD9D482CB9FA5C95699033088)
  3. Complete name : Santana - Santana IV [Live at the House of Blues] (2016) BDRip.mkv
  4. Format : Matroska
  5. Format version : Version 4 / Version 2
  6. File size : 1.82 GiB
  7. Duration : 2 h 14 min
  8. Overall bit rate : 1 936 kb/s
  9. Movie name : Santana: Santana IV [Live at the House of Blues] (2016)
  10. Encoded date : UTC 2016-11-09 02:25:46
  11. Writing application : mkvmerge v9.5.0 ('Quiet Fire') 64bit
  12. Writing library : libebml v1.3.4 + libmatroska v1.4.5
  13. Cover : Yes
  14. Attachments : cover.jpg
  15.  
  16. Video
  17. ID : 1
  18. Format : AVC
  19. Format/Info : Advanced Video Codec
  20. Format profile : High@L3.1
  21. Format settings, CABAC : Yes
  22. Format settings, ReFrames : 16 frames
  23. Codec ID : V_MPEG4/ISO/AVC
  24. Duration : 2 h 14 min
  25. Bit rate : 1 125 kb/s
  26. Width : 720 pixels
  27. Height : 400 pixels
  28. Display aspect ratio : 16:9
  29. Frame rate mode : Constant
  30. Frame rate : 29.970 (30000/1001) FPS
  31. Color space : YUV
  32. Chroma subsampling : 4:2:0
  33. Bit depth : 8 bits
  34. Scan type : Progressive
  35. Bits/(Pixel*Frame) : 0.130
  36. Stream size : 1.06 GiB (58%)
  37. Title : Santana IV: Live at the House of Blues, Las Vegas
  38. Writing library : x264 core 148 r2721kMod 72d53ab
  39. Encoding settings : cabac=1 / ref=16 / deblock=1:0:0 / analyse=0x3:0x133 / me=umh / subme=10 / psy=1 / fade_compensate=0.00 / psy_rd=1.00:0.00 / mixed_ref=1 / me_range=24 / chroma_me=1 / trellis=2 / 8x8dct=1 / cqm=0 / deadzone=21,11 / fast_pskip=1 / chroma_qp_offset=-2 / threads=5 / lookahead_threads=1 / sliced_threads=0 / slices=4 / nr=0 / decimate=1 / interlaced=0 / bluray_compat=0 / constrained_intra=0 / fgo=0 / bframes=8 / b_pyramid=2 / b_adapt=2 / b_bias=0 / direct=3 / weightb=1 / open_gop=0 / weightp=2 / keyint=300 / keyint_min=25 / scenecut=40 / intra_refresh=0 / rc_lookahead=60 / rc=2pass / mbtree=1 / bitrate=1125 / ratetol=1.0 / qcomp=0.60 / qpmin=0 / qpmax=69 / qpstep=4 / cplxblur=20.0 / qblur=0.5 / ip_ratio=1.40 / aq=1:1.00
  40. Language : English
  41. Default : Yes
  42. Forced : No
  43.  
  44. Audio #1
  45. ID : 2
  46. Format : AAC
  47. Format/Info : Advanced Audio Codec
  48. Format profile : LC
  49. Codec ID : A_AAC
  50. Duration : 2 h 14 min
  51. Bit rate : 353 kb/s
  52. Channel(s) : 2 channels
  53. Channel positions : Front: L R
  54. Sampling rate : 48.0 kHz
  55. Frame rate : 46.875 FPS (1024 spf)
  56. Compression mode : Lossy
  57. Delay relative to video : 20 ms
  58. Stream size : 346 MiB (19%)
  59. Title : AAC 2.0
  60. Language : English
  61. Default : Yes
  62. Forced : No
  63.  
  64. Audio #2
  65. ID : 3
  66. Format : AC-3
  67. Format/Info : Audio Coding 3
  68. Mode extension : CM (complete main)
  69. Format settings, Endianness : Big
  70. Codec ID : A_AC3
  71. Duration : 2 h 14 min
  72. Bit rate mode : Constant
  73. Bit rate : 448 kb/s
  74. Channel(s) : 6 channels
  75. Channel positions : Front: L C R, Side: L R, LFE
  76. Sampling rate : 48.0 kHz
  77. Frame rate : 31.250 FPS (1536 spf)
  78. Compression mode : Lossy
  79. Stream size : 431 MiB (23%)
  80. Title : AC3 5.1
  81. Language : English
  82. Default : No
  83. Forced : No
  84.  
  85. Menu
  86. 00:00:00.000 : en:01. Soul sacrifice
  87. 00:08:39.819 : en:02. Jingo
  88. 00:13:40.119 : en:03. Evil ways
  89. 00:20:56.889 : en:04. Everybody's everything
  90. 00:25:27.059 : en:05. Shake it
  91. 00:30:25.657 : en:06. Anywhere you want to go
  92. 00:35:27.158 : en:07. Choo choo
  93. 00:39:12.917 : en:08. All aboard
  94. 00:41:29.520 : en:09. Samba pa ti
  95. 00:47:27.945 : en:10. Batuka
  96. 00:50:49.914 : en:11. No one to depend on
  97. 00:56:21.545 : en:12. Leave me alone
  98. 01:02:09.759 : en:13. Sueños
  99. 01:07:19.402 : en:14. Caminando
  100. 01:12:37.987 : en:15. Blues magic
  101. 01:17:23.539 : en:16. Echizo
  102. 01:22:45.394 : en:17. Come as you are
  103. 01:28:22.330 : en:18. Yambu
  104. 01:33:48.656 : en:19. Black magic woman / Gypsy queen
  105. 01:40:23.751 : en:20. Oye como va
  106. 01:47:17.598 : en:21. Ronald Isley intro
  107. 01:49:33.600 : en:22. Love makes the world go round
  108. 01:58:35.342 : en:23. Freedom in your mind
  109. 02:04:57.357 : en:24. Toussaint l'ouverture
RAW Paste Data