HashWorks

tvp-bobsburgers-s03e08-720p.mkv

May 11th, 2015
282
Never
Not a member of Pastebin yet? Sign Up, it unlocks many cool features!
  1. General
  2. Unique ID : 293634467165546773789349806373639024630 (0xDCE7F0F92826DF4ED091D1B0EB3FEFF6)
  3. Complete name : tvp-bobsburgers-s03e08-720p.mkv
  4. Format : Matroska
  5. Format version : Version 2
  6. File size : 624 MiB
  7. Duration : 22mn 34s
  8. Overall bit rate : 3 864 Kbps
  9. Movie name : tvp-bobsburgers-s03e08-720p
  10. Encoded date : UTC 2015-05-11 08:23:16
  11. Writing application : mkvmerge v5.6.0 ('Kenya Kane') built on May 28 2012 06:47:39
  12. Writing library : libebml v1.2.2 + libmatroska v1.3.0
  13.  
  14. Video
  15. ID : 1
  16. Format : AVC
  17. Format/Info : Advanced Video Codec
  18. Format profile : High@L3.1
  19. Format settings, CABAC : Yes
  20. Format settings, ReFrames : 4 frames
  21. Codec ID : V_MPEG4/ISO/AVC
  22. Duration : 22mn 34s
  23. Bit rate : 3 289 Kbps
  24. Width : 720 pixels
  25. Height : 404 pixels
  26. Display aspect ratio : 16:9
  27. Frame rate mode : Constant
  28. Frame rate : 25.000 fps
  29. Color space : YUV
  30. Chroma subsampling : 4:2:0
  31. Bit depth : 8 bits
  32. Scan type : Progressive
  33. Bits/(Pixel*Frame) : 0.452
  34. Stream size : 519 MiB (83%)
  35. Title : tvp-bobsburgers-s03e08-720p
  36. Writing library : x264 core 146 r2538 121396c
  37. Encoding settings : cabac=1 / ref=2 / deblock=1:-3:-3 / analyse=0x3:0x133 / me=umh / subme=9 / psy=1 / psy_rd=1.00:0.00 / mixed_ref=1 / me_range=16 / chroma_me=1 / trellis=2 / 8x8dct=1 / cqm=0 / deadzone=21,11 / fast_pskip=1 / chroma_qp_offset=-2 / threads=24 / lookahead_threads=2 / sliced_threads=0 / nr=0 / decimate=1 / interlaced=0 / bluray_compat=0 / constrained_intra=0 / bframes=3 / b_pyramid=2 / b_adapt=2 / b_bias=0 / direct=3 / weightb=1 / open_gop=0 / weightp=2 / keyint=250 / keyint_min=25 / scenecut=40 / intra_refresh=0 / rc_lookahead=60 / rc=2pass / mbtree=1 / bitrate=3289 / ratetol=1.0 / qcomp=0.60 / qpmin=0 / qpmax=69 / qpstep=4 / cplxblur=20.0 / qblur=0.5 / vbv_maxrate=14000 / vbv_bufsize=14000 / nal_hrd=none / filler=0 / ip_ratio=1.40 / aq=1:1.00
  38. Language : German
  39. Default : Yes
  40. Forced : Yes
  41. Color primaries : BT.709
  42. Transfer characteristics : BT.709
  43. Matrix coefficients : BT.709
  44.  
  45. Audio #1
  46. ID : 2
  47. Format : AC-3
  48. Format/Info : Audio Coding 3
  49. Mode extension : CM (complete main)
  50. Format settings, Endianness : Big
  51. Codec ID : A_AC3
  52. Duration : 22mn 34s
  53. Bit rate mode : Constant
  54. Bit rate : 192 Kbps
  55. Channel(s) : 2 channels
  56. Channel positions : Front: L R
  57. Sampling rate : 48.0 KHz
  58. Bit depth : 16 bits
  59. Compression mode : Lossy
  60. Stream size : 31.0 MiB (5%)
  61. Language : German
  62. Default : Yes
  63. Forced : Yes
  64.  
  65. Audio #2
  66. ID : 3
  67. Format : AC-3
  68. Format/Info : Audio Coding 3
  69. Mode extension : CM (complete main)
  70. Format settings, Endianness : Big
  71. Codec ID : A_AC3
  72. Duration : 22mn 34s
  73. Bit rate mode : Constant
  74. Bit rate : 384 Kbps
  75. Channel(s) : 6 channels
  76. Channel positions : Front: L C R, Side: L R, LFE
  77. Sampling rate : 48.0 KHz
  78. Bit depth : 16 bits
  79. Compression mode : Lossy
  80. Stream size : 62.0 MiB (10%)
  81. Language : English
  82. Default : No
  83. Forced : No
RAW Paste Data