SHARE
TWEET

ffmpeg error

a guest Jan 7th, 2016 81 Never
Not a member of Pastebin yet? Sign Up, it unlocks many cool features!
  1. [mp4 @ 0x7fdcda00f400] Codec for stream 0 does not use global headers but container format requires global headers
  2. [mp4 @ 0x7fdcda00f400] Codec for stream 1 does not use global headers but container format requires global headers
  3. [mp4 @ 0x7fdcda00f400] track 1: codec frame size is not set
  4. Output #0, mp4, to '00000.mp4':
  5.   Metadata:
  6.     encoder         : Lavf56.40.101
  7.     Stream #0:0: Video: h264 ([33][0][0][0] / 0x0021), yuv420p, 1920x1080 [SAR 1:1 DAR 16:9], q=2-31, 29.97 fps, 29.97 tbr, 90k tbn, 90k tbc
  8.     Stream #0:1: Audio: ac3 ([165][0][0][0] / 0x00A5), 48000 Hz, stereo, 256 kb/s
  9. Stream mapping:
  10.   Stream #0:0 -> #0:0 (copy)
  11.   Stream #0:1 -> #0:1 (copy)
  12. Press [q] to stop, [?] for help
  13. [mp4 @ 0x7fdcda00f400] pts has no value
  14.     Last message repeated 434 times
RAW Paste Data
We use cookies for various purposes including analytics. By continuing to use Pastebin, you agree to our use of cookies as described in the Cookies Policy. OK, I Understand
Top