Guest User

Cold.Water.1994.1080p.BluRay.REMUX.AVC.DTS-HD.MA.5.1-EPSiLON

a guest
Jun 13th, 2019
35
Never
Not a member of Pastebin yet? Sign Up, it unlocks many cool features!
  1. General
  2. Complete name                            : Cold.Water.1994.1080p.BluRay.REMUX.AVC.DTS-HD.MA.5.1-EPSiLON.mkv
  3. Format                                   : Matroska
  4. Format version                           : Version 4
  5. File size                                : 25.5 GiB
  6. Duration                                 : 1 h 35 min
  7. Overall bit rate mode                    : Variable
  8. Overall bit rate                         : 38.4 Mb/s
  9. Encoded date                             : UTC 2018-09-21 18:20:55
  10. Writing application                      : mkvmerge v26.0.0 ('In The Game') 64-bit
  11. Writing library                          : libebml v1.3.6 + libmatroska v1.4.9
  12.  
  13. Video
  14. ID                                       : 1
  15. Format                                   : AVC
  16. Format/Info                              : Advanced Video Codec
  17. Format profile                           : High@L4.1
  18. Format settings                          : CABAC / 4 Ref Frames
  19. Format settings, CABAC                   : Yes
  20. Format settings, Reference frames        : 4 frames
  21. Codec ID                                 : V_MPEG4/ISO/AVC
  22. Duration                                 : 1 h 35 min
  23. Bit rate mode                            : Variable
  24. Bit rate                                 : 34.8 Mb/s
  25. Maximum bit rate                         : 37.0 Mb/s
  26. Width                                    : 1 920 pixels
  27. Height                                   : 1 080 pixels
  28. Display aspect ratio                     : 16:9
  29. Frame rate mode                          : Constant
  30. Frame rate                               : 23.976 (24000/1001) FPS
  31. Color space                              : YUV
  32. Chroma subsampling                       : 4:2:0
  33. Bit depth                                : 8 bits
  34. Scan type                                : Progressive
  35. Bits/(Pixel*Frame)                       : 0.700
  36. Stream size                              : 23.1 GiB (91%)
  37. Title                                    : MPEG-4 AVC Video / 35331 kbps / 1080p / 23.976 fps / 16:9 / High Profile 4.1
  38. Language                                 : French
  39. Default                                  : Yes
  40. Forced                                   : No
  41.  
  42. Audio
  43. ID                                       : 2
  44. Format                                   : DTS XLL
  45. Format/Info                              : Digital Theater Systems
  46. Commercial name                          : DTS-HD Master Audio
  47. Codec ID                                 : A_DTS
  48. Duration                                 : 1 h 35 min
  49. Bit rate mode                            : Variable
  50. Bit rate                                 : 3 570 kb/s
  51. Channel(s)                               : 6 channels
  52. Channel layout                           : C L R Ls Rs LFE
  53. Sampling rate                            : 48.0 kHz
  54. Frame rate                               : 93.750 FPS (512 SPF)
  55. Bit depth                                : 24 bits
  56. Compression mode                         : Lossless
  57. Stream size                              : 2.37 GiB (9%)
  58. Title                                    : DTS-HD Master Audio / 5.1 / 48 kHz / 3570 kbps / 24-bit
  59. Language                                 : French
  60. Default                                  : Yes
  61. Forced                                   : No
  62.  
  63. Text
  64. ID                                       : 3
  65. Format                                   : PGS
  66. Codec ID                                 : S_HDMV/PGS
  67. Codec ID/Info                            : Picture based subtitle format used on BDs/HD-DVDs
  68. Duration                                 : 1 h 26 min
  69. Bit rate                                 : 23.7 kb/s
  70. Count of elements                        : 1142
  71. Stream size                              : 14.6 MiB (0%)
  72. Language                                 : English
  73. Default                                  : Yes
  74. Forced                                   : No
  75.  
  76. Menu
  77. 00:00:00.000                             : en:Christine's Secret
  78. 00:07:40.460                             : en:Too Late
  79. 00:20:30.646                             : en:Dangerous Games
  80. 00:26:30.047                             : en:Beausoleil
  81. 00:32:03.004                             : en:Death of the Virgin
  82. 00:42:08.985                             : en:Into the Night
  83. 00:46:23.447                             : en:Out of Control
  84. 00:51:38.262                             : en:"Avalanche"
  85. 01:05:26.965                             : en:Mothers and Daughters
  86. 01:10:05.785                             : en:ChloĆ©
  87. 01:19:37.356                             : en:Her Note
RAW Paste Data