Guest User

Untitled

a guest
Nov 27th, 2016
224
Never
Not a member of Pastebin yet? Sign Up, it unlocks many cool features!
  1. General
  2. Unique ID : 182956883732824036923468514311045993930 (0x89A436CEAFAE738C8905A190C62155CA)
  3. Complete name : /home/Media/Videos/Movies/Freddy.Vs.Jason.2003.1080p.BluRay.x264.mkv
  4. Format : Matroska
  5. Format version : Version 1
  6. File size : 8.25 GiB
  7. Duration : 1 h 37 min
  8. Overall bit rate : 12.1 Mb/s
  9. Encoded date : UTC 2009-01-28 07:15:23
  10. Writing application : mkvmerge v2.4.2 ('Oh My God') built on Jan 18 2009 17:30:28
  11. Writing library : libebml v0.7.7 + libmatroska v0.8.1
  12.  
  13. Video
  14. ID : 1
  15. Format : AVC
  16. Format/Info : Advanced Video Codec
  17. Format profile : High@L4
  18. Format settings, CABAC : Yes
  19. Format settings, ReFrames : 5 frames
  20. Codec ID : V_MPEG4/ISO/AVC
  21. Duration : 1 h 37 min
  22. Bit rate : 10.2 Mb/s
  23. Width : 1 920 pixels
  24. Height : 808 pixels
  25. Display aspect ratio : 2.40:1
  26. Frame rate mode : Constant
  27. Frame rate : 23.976 FPS
  28. Color space : YUV
  29. Chroma subsampling : 4:2:0
  30. Bit depth : 8 bits
  31. Scan type : Progressive
  32. Bits/(Pixel*Frame) : 0.274
  33. Stream size : 6.75 GiB (82%)
  34. Writing library : x264 core 66 r1085 5fb6417
  35. Encoding settings : cabac=1 / ref=5 / deblock=1:0:0 / analyse=0x3:0x113 / me=umh / subme=7 / psy_rd=1.0:0.0 / mixed_ref=1 / me_range=16 / chroma_me=1 / trellis=1 / 8x8dct=1 / cqm=0 / deadzone=21,11 / chroma_qp_offset=-2 / threads=6 / nr=0 / decimate=1 / mbaff=0 / bframes=3 / b_pyramid=1 / b_adapt=1 / b_bias=0 / direct=1 / wpredb=1 / keyint=250 / keyint_min=25 / scenecut=40(pre) / rc=2pass / bitrate=10180 / ratetol=1.0 / qcomp=0.60 / qpmin=10 / qpmax=51 / qpstep=4 / cplxblur=20.0 / qblur=0.5 / ip_ratio=1.40 / pb_ratio=1.30 / aq=1:1.00
  36. Language : English
  37. Default : Yes
  38. Forced : No
  39.  
  40. Audio #1
  41. ID : 2
  42. Format : AC-3
  43. Format/Info : Audio Coding 3
  44. Mode extension : CM (complete main)
  45. Format settings, Endianness : Big
  46. Codec ID : A_AC3
  47. Duration : 1 h 37 min
  48. Bit rate mode : Constant
  49. Bit rate : 448 kb/s
  50. Channel(s) : 6 channels
  51. Channel positions : Front: L C R, Side: L R, LFE
  52. Sampling rate : 48.0 kHz
  53. Frame rate : 31.250 FPS (1536 spf)
  54. Compression mode : Lossy
  55. Delay relative to video : 1 s 993 ms
  56. Stream size : 312 MiB (4%)
  57. Title : AC3 5.1, 448 kbps
  58. Language : Russian
  59. Default : Yes
  60. Forced : No
  61.  
  62. Audio #2
  63. ID : 3
  64. Format : DTS
  65. Format/Info : Digital Theater Systems
  66. Mode : 16
  67. Format settings, Endianness : Big
  68. Codec ID : A_DTS
  69. Duration : 1 h 37 min
  70. Bit rate mode : Constant
  71. Bit rate : 1 509 kb/s
  72. Channel(s) : 6 channels
  73. Channel positions : Front: L C R, Side: L R, LFE
  74. Sampling rate : 48.0 kHz
  75. Frame rate : 93.750 FPS (512 spf)
  76. Bit depth : 24 bits
  77. Compression mode : Lossy
  78. Stream size : 1.03 GiB (12%)
  79. Title : DTS 5.1, 1536 kbps
  80. Language : English
  81. Default : No
  82. Forced : No
RAW Paste Data