Guest User

Untitled

a guest
May 29th, 2020
18
Never
Not a member of Pastebin yet? Sign Up, it unlocks many cool features!
  1. Error Audio encoding 1 using ffmpeg N-97868-gaa6f38c298-g38490cbeb3-gcc10.1.0 Patman (2.1.1.6)
  2.  
  3. Audio encoding 1 using ffmpeg N-97868-gaa6f38c298-g38490cbeb3-gcc10.1.0 Patman returned error exit code: 1 (0x1)
  4.  
  5. It's unclear what the exit code means, in case it's a Windows system error then it possibly means:
  6.  
  7. Incorrect function
  8.  
  9.  
  10. --- Audio encoding 1 using ffmpeg N-97868-gaa6f38c298-g38490cbeb3-gcc10.1.0 Patman ---
  11.  
  12. "C:\Encoding Tools\StaxRip 2.1.1.6 Beta\Apps\Encoders\ffmpeg\ffmpeg.exe" -i E:\Downloads\Spirited.Away.2001.BluRay.1080p.DTS-HD.MA.6.1.AVC.REMUX-FraMeSToR\Spirited.Away.2001.BluRay.1080p.DTS-HD.MA.6.1.AVC.REMUX-FraMeSToR_temp\Spirited.Away.2001.BluRay.1080p.DTS-HD.MA.6.1.AVC.REMUX-FraMeSToR.wav -bsf:a dca_core -c:a copy -y -hide_banner "E:\Downloads\Spirited.Away.2001.BluRay.1080p.DTS-HD.MA.6.1.AVC.REMUX-FraMeSToR\Spirited.Away.2001.BluRay.1080p.DTS-HD.MA.6.1.AVC.REMUX-FraMeSToR_temp\Spirited.Away.2001.BluRay.1080p.DTS-HD.MA.6.1.AVC.REMUX-FraMeSToR 7ms_a1.dts"
  13.  
  14. [wav @ 0000023a17c528c0] Ignoring maximum wav data size, file may be invalid
  15. [wav @ 0000023a17c528c0] Estimating duration from bitrate, this may be inaccurate
  16. Input #0, wav, from 'E:\Downloads\Spirited.Away.2001.BluRay.1080p.DTS-HD.MA.6.1.AVC.REMUX-FraMeSToR\Spirited.Away.2001.BluRay.1080p.DTS-HD.MA.6.1.AVC.REMUX-FraMeSToR_temp\Spirited.Away.2001.BluRay.1080p.DTS-HD.MA.6.1.AVC.REMUX-FraMeSToR.wav':
  17. Metadata:
  18. title : Spirited Away (2001)
  19. encoder : Lavf58.43.100
  20. Duration: 02:04:44.76, bitrate: 6912 kb/s
  21. Stream #0:0: Audio: pcm_s24le ([1][0][0][0] / 0x0001), 48000 Hz, 5.1, s32 (24 bit), 6912 kb/s
  22. [dca_core @ 0000023a17c55b40] Codec 'pcm_s24le' (65548) is not supported by the bitstream filter 'dca_core'. Supported codecs are: dts (86020)
  23. Error initializing bitstream filter: dca_core
  24. Stream mapping:
  25. Stream #0:0 -> #0:0 (copy)
  26. Last message repeated 1 times
  27.  
  28. StaxRip.ErrorAbortException: Audio encoding 1 using ffmpeg N-97868-gaa6f38c298-g38490cbeb3-gcc10.1.0 Patman returned error exit code: 1 (0x1)
  29.  
  30. It's unclear what the exit code means, in case it's a Windows system error then it possibly means:
  31.  
  32. Incorrect function
  33.  
  34.  
  35. --- Audio encoding 1 using ffmpeg N-97868-gaa6f38c298-g38490cbeb3-gcc10.1.0 Patman ---
  36.  
  37. "C:\Encoding Tools\StaxRip 2.1.1.6 Beta\Apps\Encoders\ffmpeg\ffmpeg.exe" -i E:\Downloads\Spirited.Away.2001.BluRay.1080p.DTS-HD.MA.6.1.AVC.REMUX-FraMeSToR\Spirited.Away.2001.BluRay.1080p.DTS-HD.MA.6.1.AVC.REMUX-FraMeSToR_temp\Spirited.Away.2001.BluRay.1080p.DTS-HD.MA.6.1.AVC.REMUX-FraMeSToR.wav -bsf:a dca_core -c:a copy -y -hide_banner "E:\Downloads\Spirited.Away.2001.BluRay.1080p.DTS-HD.MA.6.1.AVC.REMUX-FraMeSToR\Spirited.Away.2001.BluRay.1080p.DTS-HD.MA.6.1.AVC.REMUX-FraMeSToR_temp\Spirited.Away.2001.BluRay.1080p.DTS-HD.MA.6.1.AVC.REMUX-FraMeSToR 7ms_a1.dts"
  38.  
  39. [wav @ 0000023a17c528c0] Ignoring maximum wav data size, file may be invalid
  40. [wav @ 0000023a17c528c0] Estimating duration from bitrate, this may be inaccurate
  41. Input #0, wav, from 'E:\Downloads\Spirited.Away.2001.BluRay.1080p.DTS-HD.MA.6.1.AVC.REMUX-FraMeSToR\Spirited.Away.2001.BluRay.1080p.DTS-HD.MA.6.1.AVC.REMUX-FraMeSToR_temp\Spirited.Away.2001.BluRay.1080p.DTS-HD.MA.6.1.AVC.REMUX-FraMeSToR.wav':
  42. Metadata:
  43. title : Spirited Away (2001)
  44. encoder : Lavf58.43.100
  45. Duration: 02:04:44.76, bitrate: 6912 kb/s
  46. Stream #0:0: Audio: pcm_s24le ([1][0][0][0] / 0x0001), 48000 Hz, 5.1, s32 (24 bit), 6912 kb/s
  47. [dca_core @ 0000023a17c55b40] Codec 'pcm_s24le' (65548) is not supported by the bitstream filter 'dca_core'. Supported codecs are: dts (86020)
  48. Error initializing bitstream filter: dca_core
  49. Stream mapping:
  50. Stream #0:0 -> #0:0 (copy)
  51. Last message repeated 1 times
  52.  
  53.  
  54. at StaxRip.Proc.Start() in D:\Projekte\VB\staxrip\General\Proc.vb:line 367
  55. at StaxRip.GUIAudioProfile.Encode() in D:\Projekte\VB\staxrip\General\AudioProfile.vb:line 698
  56. at StaxRip.GlobalClass._Closure$__._Lambda$__41-0() in D:\Projekte\VB\staxrip\General\GlobalClass.vb:line 215
  57. at System.Threading.Tasks.Parallel.<>c__DisplayClass4_0.<Invoke>b__0()
  58. --- End of stack trace from previous location where exception was thrown ---
  59. at System.Runtime.ExceptionServices.ExceptionDispatchInfo.Throw()
  60. at StaxRip.GlobalClass.ProcessJob(String jobPath) in D:\Projekte\VB\staxrip\General\GlobalClass.vb:line 256
RAW Paste Data