SHARE
TWEET

Untitled

a guest Jan 19th, 2020 111 Never
Not a member of Pastebin yet? Sign Up, it unlocks many cool features!
  1. Общее
  2. Уникальный идентификатор                 : 188249860434733966140986705616856584015 (0x8D9F9AB4F6E135F5BA9EE57DC60E8F4F)
  3. Полное имя                               : C:\Users\User\Downloads\PTU.File.Death.Trap.2005.WEB-DL. 1080p.mkv
  4. Формат                                   : Matroska
  5. Версия формата                           : Version 2
  6. Размер файла                             : 8,00 Гбайт
  7. Продолжительность                        : 1 ч. 37 м.
  8. Общий поток                              : 11,7 Мбит/сек
  9. Название фильма                          : • Rip • Laughing Man •
  10. Дата кодирования                         : UTC 2020-01-19 23:43:37
  11. Программа кодирования                    : mkvmerge v5.7.0 ('The Whirlwind') built on Jul 10 2012 18:39:26
  12. Библиотека кодирования                   : libebml v1.2.3 + libmatroska v1.3.0
  13. Обложка                                  : Yes
  14. Attachments                              : cover.png
  15.  
  16. Видео
  17. Идентификатор                            : 1
  18. Формат                                   : AVC
  19. Формат/Информация                        : Advanced Video Codec
  20. Профиль формата                          : High@L4.1
  21. Настройки формата                        : CABAC / 4 Ref Frames
  22. Параметр CABAC формата                   : Да
  23. Параметр RefFrames формата               : 4 кадра
  24. Режим смешивания                         : Header stripping
  25. Идентификатор кодека                     : V_MPEG4/ISO/AVC
  26. Продолжительность                        : 1 ч. 37 м.
  27. Битрейт                                  : 11,2 Мбит/сек
  28. Ширина                                   : 1920 пикселей
  29. Высота                                   : 1080 пикселей
  30. Соотношение сторон                       : 16:9
  31. Режим частоты кадров                     : Постоянный
  32. Частота кадров                           : 25,000 кадров/сек
  33. Цветовое пространство                    : YUV
  34. Субдискретизация насыщенности            : 4:2:0
  35. Битовая глубина                          : 8 бит
  36. Тип развёртки                            : Прогрессивная
  37. Бит/(Пиксели*Кадры)                      : 0.217
  38. Размер потока                            : 7,53 Гбайт (94%)
  39. Заголовок                                : PTU File: Death Trap
  40. Библиотека кодирования                   : x264 core 157 r2935 545de2f
  41. Настройки программы                      : cabac=1 / ref=4 / deblock=1:-1:-1 / analyse=0x3:0x133 / me=umh / subme=10 / psy=1 / psy_rd=1.00:0.15 / mixed_ref=1 / me_range=24 / chroma_me=1 / trellis=2 / 8x8dct=1 / cqm=0 / deadzone=21,11 / fast_pskip=1 / chroma_qp_offset=-3 / threads=12 / lookahead_threads=2 / sliced_threads=0 / nr=0 / decimate=1 / interlaced=0 / bluray_compat=0 / constrained_intra=0 / bframes=8 / b_pyramid=2 / b_adapt=2 / b_bias=0 / direct=3 / weightb=1 / open_gop=0 / weightp=2 / keyint=240 / keyint_min=25 / scenecut=60 / intra_refresh=0 / rc_lookahead=60 / rc=2pass / mbtree=1 / bitrate=11247 / ratetol=1.0 / qcomp=0.60 / qpmin=0 / qpmax=69 / qpstep=4 / cplxblur=20.0 / qblur=0.5 / vbv_maxrate=62500 / vbv_bufsize=78125 / nal_hrd=none / filler=0 / ip_ratio=1.40 / aq=1:1.00
  42. Язык                                     : Chinese
  43. Default                                  : Да
  44. Forced                                   : Да
  45. Statistics Tags Issue                    : mkvmerge v29.0.0 ('Like It Or Not') 64-bit 2020-01-19 14:00:37 / mkvmerge v5.7.0 ('The Whirlwind') built on Jul 10 2012 18:39:26 2020-01-19 23:43:37
  46. FromStats_BitRate                        : 11244620
  47. FromStats_Duration                       : 01:37:55.280000000
  48. FromStats_FrameCount                     : 146882
  49. FromStats_StreamSize                     : 8258161554
  50.  
  51. Аудио #1
  52. Идентификатор                            : 2
  53. Формат                                   : AC-3
  54. Формат/Информация                        : Audio Coding 3
  55. Коммерческое название                    : Dolby Digital
  56. Режим смешивания                         : Header stripping
  57. Идентификатор кодека                     : A_AC3
  58. Продолжительность                        : 1 ч. 37 м.
  59. Вид битрейта                             : Постоянный
  60. Битрейт                                  : 224 Кбит/сек
  61. Каналы                                   : 2 канала
  62. ChannelLayout                            : L R
  63. Частота                                  : 44,1 КГц
  64. Частота кадров                           : 28,711 кадров/сек (1536 SPF)
  65. Метод сжатия                             : С потерями
  66. Размер потока                            : 157 Мбайт (2%)
  67. Язык                                     : Russian
  68. ServiceKind/String                       : Complete Main
  69. Default                                  : Да
  70. Forced                                   : Да
  71.  
  72. Аудио #2
  73. Идентификатор                            : 3
  74. Формат                                   : AC-3
  75. Формат/Информация                        : Audio Coding 3
  76. Коммерческое название                    : Dolby Digital
  77. Режим смешивания                         : Header stripping
  78. Идентификатор кодека                     : A_AC3
  79. Продолжительность                        : 1 ч. 37 м.
  80. Вид битрейта                             : Постоянный
  81. Битрейт                                  : 224 Кбит/сек
  82. Каналы                                   : 2 канала
  83. ChannelLayout                            : L R
  84. Частота                                  : 48,0 КГц
  85. Частота кадров                           : 31,250 кадров/сек (1536 SPF)
  86. Метод сжатия                             : С потерями
  87. Размер потока                            : 157 Мбайт (2%)
  88. Язык                                     : Chinese
  89. ServiceKind/String                       : Complete Main
  90. Default                                  : Нет
  91. Forced                                   : Нет
  92.  
  93. Текст
  94. Идентификатор                            : 4
  95. Формат                                   : UTF-8
  96. Идентификатор кодека                     : S_TEXT/UTF8
  97. Идентификатор кодека/Информация          : UTF-8 Plain Text
  98. Заголовок                                : SDH
  99. Язык                                     : English
  100. Default                                  : Нет
  101. Forced                                   : Нет
RAW Paste Data
We use cookies for various purposes including analytics. By continuing to use Pastebin, you agree to our use of cookies as described in the Cookies Policy. OK, I Understand
Top