GrabHD

Untitled

Mar 4th, 2020
76
Never
Not a member of Pastebin yet? Sign Up, it unlocks many cool features!
  1. General
  2. Unique ID : 286555685124058238917974983967181126999 (0xD7949E129C6F03A65B5B0FEE4D7C3D57)
  3. Complete name : Blame.2017.1080p.WEB-DL.DD5.1.H.264.-whip93.mkv
  4. Format : Matroska
  5. Format version : Version 4 / Version 2
  6. File size : 3.70 GiB
  7. Duration : 1 h 39 min
  8. Overall bit rate mode : Variable
  9. Overall bit rate : 5 324 kb/s
  10. Movie name : Вина | Blame (2017) - Release by whip93
  11. Encoded date : UTC 2019-01-30 09:23:23
  12. Writing application : mkvmerge v28.0.0 ('Voice In My Head') 64-bit
  13. Writing library : libebml v1.3.6 + libmatroska v1.4.9
  14.  
  15. Video
  16. ID : 1
  17. Format : AVC
  18. Format/Info : Advanced Video Codec
  19. Format profile : High@L4
  20. Format settings : CABAC / 4 Ref Frames
  21. Format settings, CABAC : Yes
  22. Format settings, ReFrames : 4 frames
  23. Codec ID : V_MPEG4/ISO/AVC
  24. Duration : 1 h 39 min
  25. Bit rate mode : Variable
  26. Bit rate : 4 298 kb/s
  27. Maximum bit rate : 15.0 Mb/s
  28. Width : 1 920 pixels
  29. Height : 872 pixels
  30. Display aspect ratio : 2.2:1
  31. Original display aspect rat : 2.2:1
  32. Frame rate mode : Constant
  33. Frame rate : 23.976 (24000/1001) FPS
  34. Color space : YUV
  35. Chroma subsampling : 4:2:0
  36. Bit depth : 8 bits
  37. Scan type : Progressive
  38. Bits/(Pixel*Frame) : 0.107
  39. Stream size : 2.98 GiB (81%)
  40. Title : NTb's WEB-DL
  41. Language : English
  42. Default : Yes
  43. Forced : No
  44. Color range : Limited
  45. Color primaries : BT.709
  46. Transfer characteristics : BT.709
  47. Matrix coefficients : BT.709
  48.  
  49. Audio #1
  50. ID : 2
  51. Format : AC-3
  52. Format/Info : Audio Coding 3
  53. Codec ID : A_AC3
  54. Duration : 1 h 39 min
  55. Bit rate mode : Constant
  56. Bit rate : 384 kb/s
  57. Channel(s) : 6 channels
  58. Channel positions : Front: L C R, Side: L R, LFE
  59. Sampling rate : 48.0 kHz
  60. Frame rate : 31.250 FPS (1536 SPF)
  61. Bit depth : 16 bits
  62. Compression mode : Lossy
  63. Stream size : 273 MiB (7%)
  64. Title : MVO (Jaskier)
  65. Language : Russian
  66. Service kind : Complete Main
  67. Default : Yes
  68. Forced : No
  69.  
  70. Audio #2
  71. ID : 3
  72. Format : E-AC-3
  73. Format/Info : Enhanced Audio Coding 3
  74. Codec ID : A_EAC3
  75. Duration : 1 h 39 min
  76. Bit rate mode : Constant
  77. Bit rate : 640 kb/s
  78. Channel(s) : 6 channels
  79. Channel positions : Front: L C R, Side: L R, LFE
  80. Sampling rate : 48.0 kHz
  81. Frame rate : 187.500 FPS (256 SPF)
  82. Compression mode : Lossy
  83. Stream size : 455 MiB (12%)
  84. Title : Original
  85. Language : English
  86. Service kind : Complete Main
  87. Default : No
  88. Forced : No
  89.  
  90. Text
  91. ID : 4
  92. Format : UTF-8
  93. Codec ID : S_TEXT/UTF8
  94. Codec ID/Info : UTF-8 Plain Text
  95. Duration : 1 h 37 min
  96. Bit rate : 48 b/s
  97. Count of elements : 1226
  98. Stream size : 34.5 KiB (0%)
  99. Title : Original (SDH)
  100. Language : English
  101. Default : No
  102. Forced : No
  103.  
  104. Menu
  105. 00:00:00.000 : en:Chapter 1
  106. 00:05:51.436 : en:Chapter 2
  107. 00:14:11.143 : en:Chapter 3
  108. 00:20:29.312 : en:Chapter 4
  109. 00:28:09.397 : en:Chapter 5
  110. 00:34:51.298 : en:Chapter 6
  111. 00:41:35.286 : en:Chapter 7
  112. 00:48:37.373 : en:Chapter 8
  113. 00:54:14.126 : en:Chapter 9
  114. 01:01:41.198 : en:Chapter 10
  115. 01:06:55.471 : en:Chapter 11
  116. 01:11:03.093 : en:Chapter 12
  117. 01:16:11.859 : en:Chapter 13
  118. 01:20:06.301 : en:Chapter 14
  119. 01:24:50.335 : en:Chapter 15
  120. 01:33:21.262 : en:Chapter 16
RAW Paste Data