Guest User

Untitled

a guest
Oct 23rd, 2020
21
Never
Not a member of Pastebin yet? Sign Up, it unlocks many cool features!
  1. General
  2. Unique ID : 157374709885754242329058156646462156668 (0x76654441970536D213D50CB97A786F7C)
  3. Complete name : D:\Video111\Falling.2019.WEB-DL.1080p.seleZen.mkv
  4. Format : Matroska
  5. Format version : Version 4
  6. File size : 4.04 GiB
  7. Duration : 1 h 47 min
  8. Overall bit rate : 5 374 kb/s
  9. Movie name : Falling 2019 from селезень
  10. Encoded date : UTC 2020-10-23 20:12:30
  11. Writing application : mkvmerge v40.0.0 ('Old Town Road + Pony') 64-bit
  12. Writing library : libebml v1.3.9 + libmatroska v1.5.2
  13. Cover : Yes
  14. Attachments : cover.jpg
  15.  
  16. Video
  17. ID : 1
  18. Format : AVC
  19. Format/Info : Advanced Video Codec
  20. Format profile : High@L4
  21. Format settings : CABAC / 5 Ref Frames
  22. Format settings, CABAC : Yes
  23. Format settings, Reference : 5 frames
  24. Codec ID : V_MPEG4/ISO/AVC
  25. Duration : 1 h 47 min
  26. Bit rate : 4 604 kb/s
  27. Width : 1 920 pixels
  28. Height : 804 pixels
  29. Display aspect ratio : 2.40:1
  30. Frame rate mode : Constant
  31. Frame rate : 25.000 FPS
  32. Color space : YUV
  33. Chroma subsampling : 4:2:0
  34. Bit depth : 8 bits
  35. Scan type : Progressive
  36. Bits/(Pixel*Frame) : 0.119
  37. Stream size : 3.46 GiB (86%)
  38. Language : English
  39. Default : Yes
  40. Forced : No
  41. Color range : Limited
  42. Color primaries : BT.709
  43. Transfer characteristics : BT.709
  44. Matrix coefficients : BT.709
  45.  
  46. Audio #1
  47. ID : 2
  48. Format : AC-3
  49. Format/Info : Audio Coding 3
  50. Commercial name : Dolby Digital
  51. Codec ID : A_AC3
  52. Duration : 1 h 47 min
  53. Bit rate mode : Constant
  54. Bit rate : 384 kb/s
  55. Channel(s) : 6 channels
  56. Channel layout : L R C LFE Ls Rs
  57. Sampling rate : 48.0 kHz
  58. Frame rate : 31.250 FPS (1536 SPF)
  59. Compression mode : Lossy
  60. Stream size : 296 MiB (7%)
  61. Title : iTunes
  62. Language : Russian
  63. Service kind : Complete Main
  64. Default : Yes
  65. Forced : Yes
  66.  
  67. Audio #2
  68. ID : 3
  69. Format : AC-3
  70. Format/Info : Audio Coding 3
  71. Commercial name : Dolby Digital
  72. Codec ID : A_AC3
  73. Duration : 1 h 47 min
  74. Bit rate mode : Constant
  75. Bit rate : 384 kb/s
  76. Channel(s) : 2 channels
  77. Channel layout : L R
  78. Sampling rate : 44.1 kHz
  79. Frame rate : 28.711 FPS (1536 SPF)
  80. Compression mode : Lossy
  81. Delay relative to video : 20 ms
  82. Stream size : 296 MiB (7%)
  83. Title : Original
  84. Language : English
  85. Service kind : Complete Main
  86. Default : No
  87. Forced : No
  88.  
  89. Menu
  90. 00:00:00.000 : en:Глава 1
  91. 00:02:49.520 : en:Глава 2
  92. 00:10:20.880 : en:Глава 3
  93. 00:17:39.920 : en:Глава 4
  94. 00:22:40.959 : en:Глава 5
  95. 00:27:40.439 : en:Глава 6
  96. 00:35:00.038 : en:Глава 7
  97. 00:43:30.077 : en:Глава 8
  98. 00:53:29.716 : en:Глава 9
  99. 00:59:46.236 : en:Глава 10
  100. 01:07:17.156 : en:Глава 11
  101. 01:13:27.275 : en:Глава 12
  102. 01:18:22.594 : en:Глава 13
  103. 01:23:28.913 : en:Глава 14
  104. 01:31:35.873 : en:Глава 15
  105. 01:37:10.393 : en:Глава 16
  106.  
  107.  
RAW Paste Data