Guest User

Untitled

a guest
Jan 13th, 2022
44
Never
Not a member of Pastebin yet? Sign Up, it unlocks many cool features!
  1. Общее
  2. Уникальный идентификатор : 230510897397275189779588112062027449097 (0xAD6AC8B2F22A3448B5318E5FA5B0C309)
  3. Полное имя : E:Torrent21MostBDRip1080p.mkv
  4. Формат : Matroska
  5. Версия формата : Version 4
  6. Размер файла : 12,6 Гбайт
  7. Продолжительность : 1 ч. 39 м.
  8. Общий поток : 18,0 Мбит/сек
  9. Дата кодирования : UTC 2022-01-12 23:15:46
  10. Программа кодирования : mkvmerge v9.5.0 ('Quiet Fire') 64bit
  11. Библиотека кодирования : libebml v1.3.4 + libmatroska v1.4.5
  12.  
  13. Видео
  14. Идентификатор : 1
  15. Формат : AVC
  16. Формат/Информация : Advanced Video Codec
  17. Профиль формата : High@L4.1
  18. Настройки формата : CABAC / 5 Ref Frames
  19. Параметр CABAC формата : Да
  20. Параметр RefFrames формата : 5 кадров
  21. Идентификатор кодека : V_MPEG4/ISO/AVC
  22. Продолжительность : 1 ч. 39 м.
  23. Битрейт : 15,0 Мбит/сек
  24. Ширина : 1 920 пикселей
  25. Высота : 804 пикселя
  26. Соотношение сторон : 2,40:1
  27. Режим частоты кадров : Постоянный
  28. Частота кадров : 23,976 (23976/1000) кадра/сек
  29. Цветовое пространство : YUV
  30. Субдискретизация насыщенности : 4:2:0
  31. Битовая глубина : 8 бит
  32. Тип развёртки : Прогрессивная
  33. Бит/(Пиксели*Кадры) : 0.405
  34. Размер потока : 10,5 Гбайт (83%)
  35. Заголовок : Sisendrovich(R)
  36. Библиотека кодирования : x264 core 164 r3079 d9a19f0
  37. Настройки программы : cabac=1 / ref=5 / deblock=1:-1:-1 / analyse=0x3:0x133 / me=tesa / subme=11 / psy=1 / psy_rd=1.00:0.00 / mixed_ref=1 / me_range=32 / chroma_me=1 / trellis=2 / 8x8dct=1 / cqm=0 / deadzone=21,11 / fast_pskip=0 / chroma_qp_offset=-2 / threads=24 / lookahead_threads=6 / sliced_threads=0 / nr=0 / decimate=0 / interlaced=0 / bluray_compat=0 / constrained_intra=0 / bframes=14 / b_pyramid=2 / b_adapt=2 / b_bias=0 / direct=3 / weightb=1 / open_gop=0 / weightp=2 / keyint=240 / keyint_min=23 / scenecut=40 / intra_refresh=0 / rc_lookahead=60 / rc=2pass / mbtree=0 / bitrate=14984 / ratetol=1.0 / qcomp=0.70 / qpmin=0 / qpmax=69 / qpstep=4 / cplxblur=20.0 / qblur=0.5 / vbv_maxrate=50000 / vbv_bufsize=62500 / nal_hrd=none / filler=0 / ip_ratio=1.40 / pb_ratio=1.30 / aq=3:0.80
  38. Язык : English
  39. Default : Да
  40. Forced : Нет
  41. Цветовой диапазон : Limited
  42. Основные цвета : BT.709
  43. Характеристики трансфера : BT.709
  44. Коэффициенты матрицы : BT.709
  45.  
  46. Аудио #1
  47. Идентификатор : 2
  48. Формат : DTS
  49. Формат/Информация : Digital Theater Systems
  50. Идентификатор кодека : A_DTS
  51. Продолжительность : 1 ч. 39 м.
  52. Вид битрейта : Постоянный
  53. Битрейт : 1 509 Кбит/сек
  54. Каналы : 6 каналов
  55. Channel layout : C L R Ls Rs LFE
  56. Частота : 48,0 КГц
  57. Частота кадров : 93,750 кадра/сек (512 SPF)
  58. Битовая глубина : 24 бит
  59. Метод сжатия : С потерями
  60. Размер потока : 1,05 Гбайт (8%)
  61. Заголовок : rusDTS
  62. Язык : Russian
  63. Default : Да
  64. Forced : Нет
  65.  
  66. Аудио #2
  67. Идентификатор : 3
  68. Формат : AC-3
  69. Формат/Информация : Audio Coding 3
  70. Коммерческое название : Dolby Digital
  71. Идентификатор кодека : A_AC3
  72. Продолжительность : 1 ч. 39 м.
  73. Вид битрейта : Постоянный
  74. Битрейт : 640 Кбит/сек
  75. Каналы : 6 каналов
  76. Channel layout : L R C LFE Ls Rs
  77. Частота : 48,0 КГц
  78. Частота кадров : 31,250 кадров/сек (1536 SPF)
  79. Метод сжатия : С потерями
  80. Размер потока : 458 Мбайт (4%)
  81. Заголовок : rusAC3
  82. Язык : Russian
  83. Default : Нет
  84. Forced : Нет
  85.  
  86. Аудио #3
  87. Идентификатор : 4
  88. Формат : AC-3
  89. Формат/Информация : Audio Coding 3
  90. Коммерческое название : Dolby Digital
  91. Идентификатор кодека : A_AC3
  92. Продолжительность : 1 ч. 39 м.
  93. Вид битрейта : Постоянный
  94. Битрейт : 448 Кбит/сек
  95. Каналы : 6 каналов
  96. Channel layout : L R C LFE Ls Rs
  97. Частота : 48,0 КГц
  98. Частота кадров : 31,250 кадров/сек (1536 SPF)
  99. Метод сжатия : С потерями
  100. Размер потока : 320 Мбайт (2%)
  101. Заголовок : ukr
  102. Язык : Ukrainian
  103. Default : Нет
  104. Forced : Нет
  105.  
  106. Аудио #4
  107. Идентификатор : 5
  108. Формат : AC-3
  109. Формат/Информация : Audio Coding 3
  110. Коммерческое название : Dolby Digital
  111. Идентификатор кодека : A_AC3
  112. Продолжительность : 1 ч. 39 м.
  113. Вид битрейта : Постоянный
  114. Битрейт : 448 Кбит/сек
  115. Каналы : 6 каналов
  116. Channel layout : L R C LFE Ls Rs
  117. Частота : 48,0 КГц
  118. Частота кадров : 31,250 кадров/сек (1536 SPF)
  119. Метод сжатия : С потерями
  120. Размер потока : 320 Мбайт (2%)
  121. Заголовок : eng
  122. Язык : English
  123. Default : Нет
  124. Forced : Нет
  125.  
  126. Текст #1
  127. Идентификатор : 6
  128. Формат : UTF-8
  129. Идентификатор кодека : S_TEXT/UTF8
  130. Идентификатор кодека/Информация : UTF-8 Plain Text
  131. Продолжительность : 1 ч. 30 м.
  132. Битрейт : 85 бит/сек
  133. Count of elements : 982
  134. Размер потока : 56,4 Кбайт (0%)
  135. Заголовок : rusFull
  136. Язык : Russian
  137. Default : Нет
  138. Forced : Нет
  139.  
  140. Текст #2
  141. Идентификатор : 7
  142. Формат : UTF-8
  143. Идентификатор кодека : S_TEXT/UTF8
  144. Идентификатор кодека/Информация : UTF-8 Plain Text
  145. Продолжительность : 1 ч. 29 м.
  146. Битрейт : 52 бит/сек
  147. Count of elements : 1116
  148. Размер потока : 34,5 Кбайт (0%)
  149. Заголовок : engFull
  150. Язык : English
  151. Default : Нет
  152. Forced : Нет
  153.  
  154. Текст #3
  155. Идентификатор : 8
  156. Формат : UTF-8
  157. Идентификатор кодека : S_TEXT/UTF8
  158. Идентификатор кодека/Информация : UTF-8 Plain Text
  159. Продолжительность : 1 ч. 30 м.
  160. Битрейт : 56 бит/сек
  161. Count of elements : 1249
  162. Размер потока : 37,6 Кбайт (0%)
  163. Заголовок : engSDH
  164. Язык : English
  165. Default : Нет
  166. Forced : Нет
  167.  
  168. Меню
  169. 00:00:00.000 : :Chapter 01
  170. 00:03:16.196 : :Chapter 02
  171. 00:07:48.510 : :Chapter 03
  172. 00:11:59.344 : :Chapter 04
  173. 00:16:54.722 : :Chapter 05
  174. 00:22:33.143 : :Chapter 06
  175. 00:30:54.561 : :Chapter 07
  176. 00:34:50.046 : :Chapter 08
  177. 00:40:16.414 : :Chapter 09
  178. 00:44:39.719 : :Chapter 10
  179. 00:50:54.718 : :Chapter 11
  180. 00:54:04.408 : :Chapter 12
  181. 00:58:52.320 : :Chapter 13
  182. 01:02:08.600 : :Chapter 14
  183. 01:06:19.601 : :Chapter 15
  184. 01:10:27.557 : :Chapter 16
  185. 01:16:19.617 : :Chapter 17
  186. 01:19:19.755 : :Chapter 18
  187. 01:25:15.110 : :Chapter 19
  188. 01:32:34.382 : :Chapter 20
RAW Paste Data Copied