SHARE
TWEET

Terminator II - MediaInfo

Nom1fan Jul 1st, 2018 235 Never
Not a member of Pastebin yet? Sign Up, it unlocks many cool features!
  1. General
  2. Unique ID                                : 80854094083908548142852093419888861705 (0x3CD3EE9D99039A968FDFC4A093E46209)
  3. Complete name                            : E:\Flash And Coolness\Series And Movies\Movies\HD\Terminator 2 - Judgment Day\Terminator.2.Judgment.Day.1991.Theatrical.Cut.2160p.UHD.BluRay.REMUX.HDR.HEVC.DTS-HD.MA.5.1-EPSiLON.mkv
  4. Format                                   : Matroska
  5. Format version                           : Version 4 / Version 2
  6. File size                                : 49.0 GiB
  7. Duration                                 : 2 h 17 min
  8. Overall bit rate                         : 51.1 Mb/s
  9. Encoded date                             : UTC 2017-12-26 08:09:37
  10. Writing application                      : mkvmerge v19.0.0 ('Brave Captain') 64-bit
  11. Writing library                          : libebml v1.3.5 + libmatroska v1.4.8
  12.  
  13. Video
  14. ID                                       : 1
  15. Format                                   : HEVC
  16. Format/Info                              : High Efficiency Video Coding
  17. Format profile                           : Main 10@L5.1@High
  18. Codec ID                                 : V_MPEGH/ISO/HEVC
  19. Duration                                 : 2 h 17 min
  20. Bit rate                                 : 47.0 Mb/s
  21. Width                                    : 3 840 pixels
  22. Height                                   : 2 160 pixels
  23. Display aspect ratio                     : 16:9
  24. Frame rate mode                          : Constant
  25. Frame rate                               : 23.976 (24000/1001) FPS
  26. Color space                              : YUV
  27. Chroma subsampling                       : 4:2:0 (Type 2)
  28. Bit depth                                : 10 bits
  29. Bits/(Pixel*Frame)                       : 0.236
  30. Stream size                              : 45.0 GiB (92%)
  31. Title                                    : MPEG-H HEVC Video / 46998 kbps / 2160p / 23.976 fps / 16:9 / Main 10 Profile 5.1 High / 4:2:0 / 10 bits / HDR / BT.2020
  32. Writing library                          : ATEME Titan File 3.7.10 (4.7.10.0)
  33. Language                                 : English
  34. Default                                  : Yes
  35. Forced                                   : No
  36. Color range                              : Limited
  37. Color primaries                          : BT.2020
  38. Transfer characteristics                 : PQ
  39. Matrix coefficients                      : BT.2020 non-constant
  40.  
  41. Audio
  42. ID                                       : 2
  43. Format                                   : DTS
  44. Format/Info                              : Digital Theater Systems
  45. Format profile                           : MA / Core
  46. Codec ID                                 : A_DTS
  47. Duration                                 : 2 h 17 min
  48. Bit rate mode                            : Variable / Constant
  49. Bit rate                                 : 4 084 kb/s / 1 509 kb/s
  50. Channel(s)                               : 6 channels
  51. Channel positions                        : Front: L C R, Side: L R, LFE
  52. Sampling rate                            : 48.0 kHz
  53. Frame rate                               : 93.750 FPS (512 SPF)
  54. Bit depth                                : 24 bits
  55. Compression mode                         : Lossless / Lossy
  56. Stream size                              : 3.92 GiB (8%)
  57. Title                                    : DTS-HD Master Audio / 5.1 / 48 kHz / 4084 kbps / 24-bit
  58. Language                                 : English
  59. Default                                  : Yes
  60. Forced                                   : No
  61.  
  62. Text #1
  63. ID                                       : 3
  64. Format                                   : PGS
  65. Codec ID                                 : S_HDMV/PGS
  66. Codec ID/Info                            : Picture based subtitle format used on BDs/HD-DVDs
  67. Duration                                 : 2 h 16 min
  68. Bit rate                                 : 20.4 kb/s
  69. Count of elements                        : 2284
  70. Stream size                              : 19.9 MiB (0%)
  71. Title                                    : SDH
  72. Language                                 : English
  73. Default                                  : No
  74. Forced                                   : No
  75.  
  76. Text #2
  77. ID                                       : 4
  78. Format                                   : PGS
  79. Codec ID                                 : S_HDMV/PGS
  80. Codec ID/Info                            : Picture based subtitle format used on BDs/HD-DVDs
  81. Duration                                 : 2 h 15 min
  82. Bit rate                                 : 15.5 kb/s
  83. Count of elements                        : 1790
  84. Stream size                              : 15.0 MiB (0%)
  85. Language                                 : French
  86. Default                                  : No
  87. Forced                                   : No
  88.  
  89. Text #3
  90. ID                                       : 5
  91. Format                                   : PGS
  92. Codec ID                                 : S_HDMV/PGS
  93. Codec ID/Info                            : Picture based subtitle format used on BDs/HD-DVDs
  94. Duration                                 : 2 h 15 min
  95. Bit rate                                 : 16.7 kb/s
  96. Count of elements                        : 1808
  97. Stream size                              : 16.2 MiB (0%)
  98. Language                                 : German
  99. Default                                  : No
  100. Forced                                   : No
  101.  
  102. Text #4
  103. ID                                       : 6
  104. Format                                   : PGS
  105. Codec ID                                 : S_HDMV/PGS
  106. Codec ID/Info                            : Picture based subtitle format used on BDs/HD-DVDs
  107. Duration                                 : 2 h 11 min
  108. Bit rate                                 : 18.3 kb/s
  109. Count of elements                        : 1892
  110. Stream size                              : 17.2 MiB (0%)
  111. Language                                 : Spanish
  112. Default                                  : No
  113. Forced                                   : No
  114.  
  115. Menu
  116. 00:00:00.000                             : en:Chapter 1
  117. 00:09:42.791                             : en:Chapter 2
  118. 00:22:07.034                             : en:Chapter 3
  119. 00:35:00.890                             : en:Chapter 4
  120. 00:47:57.583                             : en:Chapter 5
  121. 01:01:44.993                             : en:Chapter 6
  122. 01:13:17.143                             : en:Chapter 7
  123. 01:21:51.115                             : en:Chapter 8
  124. 01:30:19.122                             : en:Chapter 9
  125. 01:39:28.379                             : en:Chapter 10
  126. 01:50:05.474                             : en:Chapter 11
  127. 02:03:45.668                             : en:Chapter 12
RAW Paste Data
We use cookies for various purposes including analytics. By continuing to use Pastebin, you agree to our use of cookies as described in the Cookies Policy. OK, I Understand
 
Top