Guest User

Untitled

a guest
Apr 16th, 2014
30
Never
Not a member of Pastebin yet? Sign Up, it unlocks many cool features!
  1. Общее
  2. Police.Story.2013.BluRay.1080p.DTS.2Audio.x264-CHD\Policeyskaya.Ist0r1ya.4.2013.BDRip.720p.mkv
  3. Формат : Matroska
  4. Версия формата : Version 4 / Version 2
  5. Размер файла : 3,41 Гбайт
  6. Продолжительность : 1 ч. 50 м.
  7. Общий поток : 4437 Кбит/сек
  8. Дата кодирования : UTC 2014-04-16 06:44:43
  9. Программа кодирования : mkvmerge v6.1.0 ('Old Devil') built on Mar 2 2013 14:32:37
  10. Библиотека кодирования : libebml v1.3.0 + libmatroska v1.4.0
  11.  
  12. Видео
  13. Идентификатор : 1
  14. Формат : AVC
  15. Формат/Информация : Advanced Video Codec
  16. Профиль формата : High@L4.1
  17. Параметр CABAC формата : Да
  18. Параметр ReFrames формата : 4 кадра
  19. Идентификатор кодека : V_MPEG4/ISO/AVC
  20. Продолжительность : 1 ч. 50 м.
  21. Битрейт : 4124 Кбит/сек
  22. Ширина : 1280 пикселей
  23. Высота : 544 пикселя
  24. Соотношение сторон : 2,35:1
  25. Режим частоты кадров : Постоянный
  26. Частота кадров : 24,000 кадра/сек
  27. Цветовое пространство : YUV
  28. Субдискретизация насыщенности : 4:2:0
  29. Битовая глубина : 8 бит
  30. Тип развёртки : Прогрессивная
  31. Бит/(Пиксели*Кадры) : 0.247
  32. Размер потока : 3,17 Гбайт (93%)
  33. Библиотека кодирования : x264 core 138 r2358 9e941d1
  34. Настройки программы : cabac=1 / ref=2 / deblock=1:0:0 / analyse=0x3:0x133 / me=hex / subme=2 / psy=1 / psy_rd=2.00:0.70 / mixed_ref=1 / me_range=16 / chroma_me=1 / trellis=2 / 8x8dct=1 / cqm=0 / deadzone=21,11 / fast_pskip=0 / chroma_qp_offset=-2 / threads=12 / lookahead_threads=4 / sliced_threads=0 / nr=0 / decimate=1 / interlaced=0 / bluray_compat=0 / constrained_intra=0 / bframes=2 / b_pyramid=2 / b_adapt=2 / b_bias=0 / direct=3 / weightb=1 / open_gop=0 / weightp=2 / keyint=230 / keyint_min=23 / scenecut=40 / intra_refresh=0 / rc_lookahead=60 / rc=crf / mbtree=0 / crf=16.5 / qcomp=0.60 / qpmin=0 / qpmax=69 / qpstep=4 / vbv_maxrate=62500 / vbv_bufsize=50000 / crf_max=0.0 / nal_hrd=none / ip_ratio=1.30 / pb_ratio=1.20 / aq=2:0.80
  35. Язык : English
  36. Default : Да
  37. Forced : Нет
  38.  
  39. Аудио
  40. Идентификатор : 2
  41. Формат : AC-3
  42. Формат/Информация : Audio Coding 3
  43. Расширение режима : CM (complete main)
  44. Параметр Endianness формата : Big
  45. Идентификатор кодека : A_AC3
  46. Продолжительность : 1 ч. 50 м.
  47. Вид битрейта : Постоянный
  48. Битрейт : 224 Кбит/сек
  49. Каналы : 2 канала
  50. Расположение каналов : Front: L R
  51. Частота : 48,0 КГц
  52. Битовая глубина : 16 бит
  53. Метод сжатия : С потерями
  54. Размер потока : 176 Мбайт (5%)
  55. Язык : Russian
  56. Default : Да
  57. Forced : Нет
  58.  
  59. Текст
  60. Идентификатор : 3
  61. Формат : PGS
  62. Режим смешивания : zlib
  63. Идентификатор кодека : S_HDMV/PGS
  64. Идентификатор кодека/Информация : The same subtitle format used on BDs/HD-DVDs
  65. Язык : English
  66. Default : Нет
  67. Forced : Нет
  68.  
  69. Меню
  70. 00:00:00.000 : zh:
  71. 00:09:49.000 : zh:
  72. 00:19:52.000 : zh:
  73. 00:28:14.625 : zh:
  74. 00:37:56.000 : zh:
  75. 00:47:41.000 : zh:
  76. 00:56:41.000 : zh:
  77. 01:05:11.000 : zh:
  78. 01:15:06.000 : zh:
  79. 01:25:26.000 : zh:
  80. 01:34:59.000 : zh:
  81. 01:43:00.000 : zh:
RAW Paste Data