SHARE
TWEET

Forum

a guest Jun 28th, 2015 241 Never
Not a member of Pastebin yet? Sign Up, it unlocks many cool features!
  1. [09:55:14] macgui: Handbrake Version: 0.10.2 x86_64 (2015061100)
  2. [09:55:14] hb_init: starting libhb thread
  3. [09:55:14] hb_init: starting libhb thread
  4. [09:55:15] macgui: hbInstances path to this instance: /Applications/HandBrake.app
  5. [09:55:15] macgui: hbInstance found instance pidnum: 1077 at path: /Applications/HandBrake.app
  6. [09:55:15] macgui: hbInstance MATCH FOUND, our pidnum is: 1077
  7. [09:55:15] macgui: Pid for this instance: 1077
  8. [09:55:15] macgui: HBQueueController : My Pidnum is 1077
  9. [09:55:20] macgui: trying to open video_ts folder (parent directory chosen)
  10. [09:55:20] macgui: scanning titles with a duration of 10 seconds or more
  11. [09:55:20] CPU: Intel(R) Core(TM) i7-2635QM CPU @ 2.00GHz
  12. [09:55:20]  - Intel microarchitecture Sandy Bridge
  13. [09:55:20]  - logical processor count: 8
  14. [09:55:20] OpenCL device #1: AMD ATI Radeon HD 6490M
  15. [09:55:20]  - OpenCL version: 1.2
  16. [09:55:20]  - driver version: 1.2 (Mar 23 2015 12:04:25)
  17. [09:55:20]  - device type:    GPU
  18. [09:55:20]  - supported:      YES
  19. [09:55:20] hb_scan: path=/Users/bg/Documents/MyMovie.720p.HDTV.x264.mkv, title_index=0
  20. libbluray/bdnav/index_parse.c:162: indx_parse(): error opening /Users/bg/Documents/MyMovie.720p.HDTV.x264.mkv/BDMV/index.bdmv
  21. libbluray/bdnav/index_parse.c:162: indx_parse(): error opening /Users/bg/Documents/VMyMovie.720p.HDTV.x264.mkv/BDMV/BACKUP/index.bdmv
  22. libbluray/bluray.c:2182: nav_get_title_list(/Users/bg/Documents/MyMovie.720p.HDTV.x264.mkv) failed
  23. [09:55:20] bd: not a bd - trying as a stream/file instead
  24. libdvdnav: Using dvdnav version 5.0.1
  25. libdvdread: Encrypted DVD support unavailable.
  26. libdvdread:DVDOpenFileUDF:UDFFindFile /VIDEO_TS/VIDEO_TS.IFO failed
  27. libdvdread:DVDOpenFileUDF:UDFFindFile /VIDEO_TS/VIDEO_TS.BUP failed
  28. libdvdread: Can't open file VIDEO_TS.IFO.
  29. libdvdnav: vm: failed to read VIDEO_TS.IFO
  30. [09:55:20] dvd: not a dvd - trying as a stream/file instead
  31. Input #0, matroska,webm, from '/Users/bg/Documents/MyMovie.720p.HDTV.x264.mkv':
  32.   Duration: 02:00:07.82, start: 0.000000, bitrate: N/A
  33.     Stream #0.0(eng): Video: h264 (High), yuv420p, 1280x720, PAR 1:1 DAR 16:9, 23.98 fps, 1k tbn, 47.95 tbc (default)
  34.     Stream #0.1(eng): Audio: ac3, 48000 Hz, 5.1, fltp, 384 kb/s (default)
  35.     Stream #0.2(eng): Subtitle: [0][0][0][0] / 0x0000
  36.     Metadata:
  37.       title           : English
  38. [09:55:20] scan: decoding previews for title 1
  39. [09:55:20] scan: audio 0x1: ac3, rate=48000Hz, bitrate=384000 English (AC3) (5.1 ch)
  40. [09:55:21] scan: 10 previews, 1280x720, 23.976 fps, autocrop = 0/0/160/160, aspect 16:9, PAR 1:1
  41. [09:55:21] libhb: scan thread found 1 valid title(s)
  42. [09:55:21] macgui: ScanDone state received from fHandle
  43. [09:55:21] macgui: showNewScan: This is a new source item scan
RAW Paste Data
We use cookies for various purposes including analytics. By continuing to use Pastebin, you agree to our use of cookies as described in the Cookies Policy. OK, I Understand
Top