SHARE
TWEET

Untitled

a guest Mar 26th, 2019 76 Never
Not a member of Pastebin yet? Sign Up, it unlocks many cool features!
  1. General
  2. Unique ID                   : 235917595220799010805198424875290107754 (0xB17C137B9339C29186AB22FD1CF89F6A)
  3. Complete name               : Kung.Pow.Enter.The.Fist.2002.FRENCH.720p.HDTV.H264.NoTAG.mkv
  4. Format                      : Matroska
  5. Format version              : Version 4
  6. File size                   : 1.94 GiB
  7. Duration                    : 1 h 21 min
  8. Overall bit rate            : 3 414 kb/s
  9. Encoded date                : UTC 2014-07-11 03:11:45
  10. Writing application         : mkvmerge v6.9.1 ('Blue Panther') 64bit built on Apr 18 2014 18:23:38
  11. Writing library             : libebml v1.3.0 + libmatroska v1.4.1
  12.  
  13. Video
  14. ID                          : 1
  15. Format                      : AVC
  16. Format/Info                 : Advanced Video Codec
  17. Format profile              : High@L4.1
  18. Format settings             : CABAC / 5 Ref Frames
  19. Format settings, CABAC      : Yes
  20. Format settings, ReFrames   : 5 frames
  21. Codec ID                    : V_MPEG4/ISO/AVC
  22. Duration                    : 1 h 21 min
  23. Bit rate                    : 2 770 kb/s
  24. Width                       : 1 280 pixels
  25. Height                      : 710 pixels
  26. Display aspect ratio        : 16:9
  27. Frame rate mode             : Constant
  28. Frame rate                  : 23.976 (24000/1001) FPS
  29. Color space                 : YUV
  30. Chroma subsampling          : 4:2:0
  31. Bit depth                   : 8 bits
  32. Scan type                   : Progressive
  33. Bits/(Pixel*Frame)          : 0.127
  34. Stream size                 : 1.58 GiB (81%)
  35. Title                       : Video
  36. Writing library             : x264 core 130 r2273 b3065e6
  37. Encoding settings           : cabac=1 / ref=5 / deblock=1:0:0 / analyse=0x3:0x113 / me=umh / subme=8 / psy=1 / psy_rd=1.00:0.00 / mixed_ref=1 / me_range=16 / chroma_me=1 / trellis=1 / 8x8dct=1 / cqm=0 / deadzone=21,11 / fast_pskip=1 / chroma_qp_offset=-2 / threads=12 / lookahead_threads=2 / sliced_threads=0 / nr=0 / decimate=1 / interlaced=0 / bluray_compat=0 / constrained_intra=0 / bframes=3 / b_pyramid=2 / b_adapt=2 / b_bias=0 / direct=3 / weightb=1 / open_gop=0 / weightp=2 / keyint=240 / keyint_min=24 / scenecut=40 / intra_refresh=0 / rc_lookahead=50 / rc=crf / mbtree=1 / crf=21.0 / qcomp=0.60 / qpmin=0 / qpmax=69 / qpstep=4 / vbv_maxrate=50000 / vbv_bufsize=50000 / crf_max=0.0 / nal_hrd=none / ip_ratio=1.40 / aq=1:1.00
  38. Default                     : Yes
  39. Forced                      : No
  40. Color range                 : Limited
  41. Color primaries             : BT.709
  42. Transfer characteristics    : BT.709
  43. Matrix coefficients         : BT.709
  44.  
  45. Audio #1
  46. ID                          : 2
  47. Format                      : AC-3
  48. Format/Info                 : Audio Coding 3
  49. Commercial name             : Dolby Digital
  50. Codec ID                    : A_AC3
  51. Duration                    : 1 h 21 min
  52. Bit rate mode               : Constant
  53. Bit rate                    : 384 kb/s
  54. Channel(s)                  : 6 channels
  55. Channel layout              : L R C LFE Ls Rs
  56. Sampling rate               : 48.0 kHz
  57. Frame rate                  : 31.250 FPS (1536 SPF)
  58. Bit depth                   : 16 bits
  59. Compression mode            : Lossy
  60. Stream size                 : 224 MiB (11%)
  61. Title                       : Anglais 5.1
  62. Language                    : English
  63. Service kind                : Complete Main
  64. Default                     : No
  65. Forced                      : No
  66.  
  67. Audio #2
  68. ID                          : 3
  69. Format                      : AC-3
  70. Format/Info                 : Audio Coding 3
  71. Commercial name             : Dolby Digital
  72. Codec ID                    : A_AC3
  73. Duration                    : 1 h 21 min
  74. Bit rate mode               : Constant
  75. Bit rate                    : 192 kb/s
  76. Channel(s)                  : 2 channels
  77. Channel layout              : L R
  78. Sampling rate               : 48.0 kHz
  79. Frame rate                  : 31.250 FPS (1536 SPF)
  80. Bit depth                   : 16 bits
  81. Compression mode            : Lossy
  82. Stream size                 : 112 MiB (6%)
  83. Title                       : Francais 2.0
  84. Language                    : French
  85. Service kind                : Complete Main
  86. Default                     : Yes
  87. Forced                      : No
  88.  
  89. Text #1
  90. ID                          : 4
  91. Format                      : UTF-8
  92. Codec ID                    : S_TEXT/UTF8
  93. Codec ID/Info               : UTF-8 Plain Text
  94. Title                       : Anglais
  95. Language                    : English
  96. Default                     : No
  97. Forced                      : No
  98.  
  99. Text #2
  100. ID                          : 5
  101. Format                      : UTF-8
  102. Codec ID                    : S_TEXT/UTF8
  103. Codec ID/Info               : UTF-8 Plain Text
  104. Title                       : Francais
  105. Language                    : French
  106. Default                     : No
  107. Forced                      : No
RAW Paste Data
We use cookies for various purposes including analytics. By continuing to use Pastebin, you agree to our use of cookies as described in the Cookies Policy. OK, I Understand
 
Top