daily pastebin goal
89%
SHARE
TWEET

untitled

loverboy94 Jan 17th, 2019 63 Never
Not a member of Pastebin yet? Sign Up, it unlocks many cool features!
  1. *** General
  2. Complete name                             :  Vikings.S05E18.Baldur.1080p.WEBRip.6CH.x265.HEVC-PSA.mkv
  3. Format                                    :  Matroska
  4. Format version                            :  Version 4
  5. File size                                 :  534 MiB
  6. Duration                                  :  45 min 27 s
  7. Overall bit rate                          :  1 643 kb/s
  8. Movie name                                :  PSArips.com | Vikings.S05E18.Baldur.1080p.WEBRip.6CH.x265.HEVC-PSA
  9. Encoded date                              :  UTC 2019-01-17 16:41:02
  10. Writing application                       :  mkvmerge v30.1.0 ('Forever And More') 64-bit
  11. Writing library                           :  libebml v1.3.6 + libmatroska v1.4.9
  12.  
  13. *** Video
  14. ID                                        :  1
  15. Format                                    :  HEVC
  16. Format/Info                               :  High Efficiency Video Coding
  17. Format profile                            :  Main@L4@Main
  18. Codec ID                                  :  V_MPEGH/ISO/HEVC
  19. Duration                                  :  45 min 27 s
  20. Bit rate                                  :  1 426 kb/s
  21. Width                                     :  1 920 pixels
  22. Height                                    :  1 080 pixels
  23. Display aspect ratio                      :  16:9
  24. Frame rate mode                           :  Constant
  25. Frame rate                                :  23.976 (24000/1001) FPS
  26. Color space                               :  YUV
  27. Chroma subsampling                        :  4:2:0
  28. Bit depth                                 :  8 bits
  29. Bits/(Pixel*Frame)                        :  0.029
  30. Stream size                               :  464 MiB (87%)
  31. Default                                   :  Yes
  32. Forced                                    :  No
  33.  
  34. *** Audio
  35. ID                                        :  2
  36. Format                                    :  AAC LC SBR
  37. Format/Info                               :  Advanced Audio Codec Low Complexity with Spectral Band Replication
  38. Commercial name                           :  HE-AAC
  39. Format settings                           :  Explicit
  40. Codec ID                                  :  A_AAC-2
  41. Duration                                  :  45 min 27 s
  42. Bit rate                                  :  214 kb/s
  43. Channel(s)                                :  6 channels
  44. Channel layout                            :  C L R Ls Rs LFE
  45. Sampling rate                             :  48.0 kHz
  46. Frame rate                                :  23.438 FPS (2048 SPF)
  47. Compression mode                          :  Lossy
  48. Delay relative to video                   :  23 ms
  49. Stream size                               :  69.7 MiB (13%)
  50. Language                                  :  English
  51. Default                                   :  Yes
  52. Forced                                    :  No
  53.  
  54. *** Text
  55. ID                                        :  3
  56. Format                                    :  UTF-8
  57. Codec ID                                  :  S_TEXT/UTF8
  58. Codec ID/Info                             :  UTF-8 Plain Text
  59. Duration                                  :  44 min 27 s
  60. Bit rate                                  :  45 b/s
  61. Count of elements                         :  606
  62. Stream size                               :  14.9 KiB (0%)
  63. Language                                  :  English
  64. Default                                   :  Yes
  65. Forced                                    :  No
RAW Paste Data
We use cookies for various purposes including analytics. By continuing to use Pastebin, you agree to our use of cookies as described in the Cookies Policy. OK, I Understand
 
Top