SHARE
TWEET

[MTBB-PAS] Hakumei to Mikochi - 03 [F73ED534].mkv

a guest Feb 7th, 2018 23 Never
Not a member of Pastebin yet? Sign Up, it unlocks many cool features!
  1. General
  2. Unique ID                                : 249309839545369297930422412863247252073 (0xBB8F541B44AB9E56F64DC200F0507A69)
  3. Format                                   : Matroska
  4. Format version                           : Version 4 / Version 2
  5. File size                                : 535 MiB
  6. Duration                                 : 23 min 40 s
  7. Overall bit rate                         : 3 160 kb/s
  8. Encoded date                             : UTC 2018-01-29 20:23:59
  9. Writing application                      : mkvmerge v19.0.0 ('Brave Captain') 64-bit
  10. Writing library                          : libebml v1.3.5 + libmatroska v1.4.8
  11. Attachments                              : BLOODCROW.TTF / BOLTON.TTF / CHARTITNORMAL.TTF / GandhiSans-Bold_1.otf / GandhiSans-BoldItalic_1.otf / QUADRAAT-REGULAR.OTF / BAQA.OTF / BDCARTOONSHOUT.TTF / BILLYBEAR'SCRAYONS-REGULAR.TTF
  12.  
  13. Video
  14. ID                                       : 1
  15. Format                                   : AVC
  16. Format/Info                              : Advanced Video Codec
  17. Format profile                           : High 4:4:4 Predictive@L5
  18. Format settings, CABAC                   : Yes
  19. Format settings, ReFrames                : 15 frames
  20. Codec ID                                 : V_MPEG4/ISO/AVC
  21. Duration                                 : 23 min 40 s
  22. Bit rate                                 : 2 929 kb/s
  23. Width                                    : 1 440 pixels
  24. Height                                   : 810 pixels
  25. Display aspect ratio                     : 16:9
  26. Frame rate mode                          : Constant
  27. Frame rate                               : 23.976 (24000/1001) FPS
  28. Color space                              : YUV
  29. Chroma subsampling                       : 4:4:4
  30. Bit depth                                : 10 bits
  31. Scan type                                : Progressive
  32. Bits/(Pixel*Frame)                       : 0.105
  33. Stream size                              : 496 MiB (93%)
  34. Writing library                          : x264 core 155 r2893 b00bcaf
  35. Encoding settings                        : cabac=1 / ref=15 / deblock=1:-1:-1 / analyse=0x1:0x131 / me=umh / subme=10 / psy=1 / psy_rd=0.70:0.00 / mixed_ref=1 / me_range=32 / chroma_me=1 / trellis=2 / 8x8dct=0 / cqm=0 / deadzone=21,11 / fast_pskip=0 / chroma_qp_offset=4 / threads=12 / lookahead_threads=3 / sliced_threads=0 / nr=0 / decimate=0 / interlaced=0 / bluray_compat=0 / constrained_intra=0 / bframes=16 / b_pyramid=2 / b_adapt=2 / b_bias=0 / direct=3 / weightb=1 / open_gop=0 / weightp=2 / keyint=240 / keyint_min=23 / scenecut=40 / intra_refresh=0 / rc_lookahead=48 / rc=crf / mbtree=1 / crf=16.5 / qcomp=0.70 / qpmin=0 / qpmax=81 / qpstep=4 / ip_ratio=1.40 / aq=3:0.80
  36. Default                                  : Yes
  37. Forced                                   : No
  38. Color range                              : Limited
  39. Matrix coefficients                      : BT.709
  40.  
  41. Audio
  42. ID                                       : 2
  43. Format                                   : E-AC-3
  44. Format/Info                              : Enhanced Audio Coding 3
  45. Format settings, Endianness              : Big
  46. Codec ID                                 : A_EAC3
  47. Duration                                 : 23 min 39 s
  48. Bit rate mode                            : Constant
  49. Bit rate                                 : 224 kb/s
  50. Channel(s)                               : 2 channels
  51. Channel positions                        : Front: L R
  52. Sampling rate                            : 48.0 kHz
  53. Frame rate                               : 187.500 FPS (256 spf)
  54. Compression mode                         : Lossy
  55. Stream size                              : 37.9 MiB (7%)
  56. Language                                 : Japanese
  57. Service kind                             : Complete Main
  58. Default                                  : Yes
  59. Forced                                   : No
  60.  
  61. Text
  62. ID                                       : 3
  63. Format                                   : ASS
  64. Codec ID                                 : S_TEXT/ASS
  65. Codec ID/Info                            : Advanced Sub Station Alpha
  66. Duration                                 : 23 min 25 s
  67. Bit rate                                 : 1 441 b/s
  68. Count of elements                        : 1090
  69. Compression mode                         : Lossless
  70. Stream size                              : 247 KiB (0%)
  71. Language                                 : English
  72. Default                                  : Yes
  73. Forced                                   : No
  74.  
  75. Menu
  76. 00:00:00.033                             : en:Intro
  77. 00:00:49.980                             : en:OP
  78. 00:02:19.950                             : en:Starlit Sky and Ponkan Fruit
  79. 00:11:50.980                             : en:Workday
  80. 00:22:10.550                             : en:ED
RAW Paste Data
We use cookies for various purposes including analytics. By continuing to use Pastebin, you agree to our use of cookies as described in the Cookies Policy. OK, I Understand
Top