SHARE
TWEET

Untitled

a guest Jul 17th, 2012 39 Never
Not a member of Pastebin yet? Sign Up, it unlocks many cool features!
  1. ffmpeg version 0.8.3-4:0.8.3-0ubuntu0.12.04.1, Copyright (c) 2000-2012 the Libav developers
  2.   built on Jun 12 2012 16:52:09 with gcc 4.6.3
  3. *** THIS PROGRAM IS DEPRECATED ***
  4. This program is only provided for compatibility and will be removed in a future release. Please use avconv instead.
  5.  
  6. Seems stream 0 codec frame rate differs from container frame rate: 59.94 (2997/50) -> 29.97 (2997/100)
  7. Input #0, mov,mp4,m4a,3gp,3g2,mj2, from '/media/760AA3D00AA38C25/Users/superpower/Desktop/00019.m4v':
  8.   Metadata:
  9.     major_brand     : M4V
  10.     minor_version   : 512
  11.     compatible_brands: isomiso2avc1
  12.     encoder         : Lavf54.2.100
  13.   Duration: 00:00:32.57, start: 0.000000, bitrate: 1073 kb/s
  14.     Stream #0.0(und): Video: h264 (High), yuv420p, 624x352 [PAR 255:254 DAR 9945:5588], 954 kb/s, 29.97 fps, 29.97 tbr, 2997 tbn, 59.94 tbc
  15.     Stream #0.1(und): Audio: aac, 48000 Hz, stereo, s16, 111 kb/s
  16. Unknown encoder 'libfaac'
  17. Press Enter to Continue
RAW Paste Data
We use cookies for various purposes including analytics. By continuing to use Pastebin, you agree to our use of cookies as described in the Cookies Policy. OK, I Understand
 
Top