Advertisement
Guest User

Untitled

a guest
May 27th, 2024
12
0
Never
Not a member of Pastebin yet? Sign Up, it unlocks many cool features!
text 15.29 KB | None | 0 0
  1. Donate: https://www.paypal.com/donate/?hosted_button_id=6ML5KUZG9XGB6 Date: 28/05/2024 00:25
  2. Contact: R3S3T_9999@proton.me Version: 2.0.7.beta_MKV
  3.  
  4.  
  5. _____ __ ___ _____ _ _
  6. | __ \ \ \ / (_) / ____| (_) | |
  7. | | | | __\ \ / / _ | (___ ___ _ __ _ _ __ | |_ ___
  8. | | | |/ _ \ \/ / | | \___ \ / __| '__| | '_ \| __/ __|
  9. | |__| | (_) \ / | | ____) | (__| | | | |_) | |_\__ \
  10. |_____/ \___/ \/ |_| |_____/ \___|_| |_| .__/ \__|___/
  11. -Author: RESET_9999--------------------------|__|-----------
  12.  
  13.  
  14.  
  15. 1) MODE.I= DoVi Inject/Convert/Edit/Re-sync TWO INPUTS (P8 Hybrid Maker/Injector)
  16. 2) MODE.F= DoVi Fix/Edit/Extract/Verify/Info ONE INPUT
  17. 3) MODE.H= DoVi Maker from HDR10 (Dolby Algo or MadVR or HDR10+)
  18. 4) MODE.7= DoVi Profile 7 Input (MKV/BDMV)
  19. 5) MODE.B= DoVi MKV Batch Muxer
  20. 6) MODE.P= Plotter
  21. 7) MODE.S= Screenshots & Player
  22. 8) MODE.M= MIXED: Audio/Remover/Encoder/Playlist/Sample
  23. 9) Exit
  24.  
  25. Choice? [1,2,3,4,5,6,7,8,9]?8
  26.  
  27. *****************
  28. * CHOOSE A MODE *
  29. *****************
  30.  
  31. 1) MODE.1= AUDIO Encoding (DDP, THDAC3, DEE)
  32. 2) MODE.2= VIDEO Encoding (x265/Prores/dovi_baker/libplacebo/cm_offline)
  33. 3) MODE.3= Find Main Movie Playlist (BD MPLS)
  34. 4) MODE.4= Dolby Vision / HDR10plus Remover
  35. 5) MODE.5= MKV Sample Maker
  36. 6) MODE.6= Find a video frame count
  37. 7) MODE.7= Subtitles_Tonemap (reduce SUP subtitles brightness)
  38.  
  39. Choice? [1,2,3,4,5,6,7]?2
  40.  
  41. *********************
  42. * CHOOSE A WORKFLOW *
  43. *********************
  44.  
  45. 1) Workflow.1= X265: HDR to HDR (DVP7/DVP5/HDR10/HLG)
  46. 2) Workflow.2= X265: HDR to SDR (DVP7/DVP5/HDR10/HLG)
  47. 3) Workflow.3= PRORES: HDR to HDR (DVP7/DVP5/HDR10/HLG)
  48. 4) Workflow.4= PRORES: DV to SDR (Dolby CM_Offline 100nits L2 trim pass delivery)
  49. 5) Workflow.5= PRORES: SDR to HDR-100nits
  50. 6) Workflow.6= back to main menu
  51.  
  52. Choice? [1,2,3,4,5,6]?4
  53. ----------------------------------------------------------------------------------------------------------------
  54. -- Can Encode any DV source that has a 100nits trim pass to SDR PRORES 422 HQ
  55. -- Require Dolby CM_offline.exe
  56. -- P7 fel baking requires and Nvidia GPU
  57. -- Input MUST be PQ/HDR with a 100nits Level 2 trim.
  58. -- Require a lot of HDD space and -qscale:v 3 is hardcoded since higher value reduce quality
  59. -- Require Vapoursynth
  60. ------------------------------------------------------------------------------------------------------------------
  61. Drag and drop a video and press enter...
  62. C:\Users\Emilio\Desktop\GODMASTER.mkv
  63. ffmpeg version 2024-02-22-git-76b2bb96b4-full_build-www.gyan.dev Copyright (c) 2000-2024 the FFmpeg developers
  64. built with gcc 12.2.0 (Rev10, Built by MSYS2 project)
  65. configuration: --enable-gpl --enable-version3 --enable-static --pkg-config=pkgconf --disable-w32threads --disable-autodetect --enable-fontconfig --enable-iconv --enable-gnutls --enable-libxml2 --enable-gmp --enable-bzlib --enable-lzma --enable-libsnappy --enable-zlib --enable-librist --enable-libsrt --enable-libssh --enable-libzmq --enable-avisynth --enable-libbluray --enable-libcaca --enable-sdl2 --enable-libaribb24 --enable-libaribcaption --enable-libdav1d --enable-libdavs2 --enable-libuavs3d --enable-libzvbi --enable-librav1e --enable-libsvtav1 --enable-libwebp --enable-libx264 --enable-libx265 --enable-libxavs2 --enable-libxvid --enable-libaom --enable-libjxl --enable-libopenjpeg --enable-libvpx --enable-mediafoundation --enable-libass --enable-frei0r --enable-libfreetype --enable-libfribidi --enable-libharfbuzz --enable-liblensfun --enable-libvidstab --enable-libvmaf --enable-libzimg --enable-amf --enable-cuda-llvm --enable-cuvid --enable-ffnvcodec --enable-nvdec --enable-nvenc --enable-dxva2 --enable-d3d11va --enable-libvpl --enable-libshaderc --enable-vulkan --enable-libplacebo --enable-opencl --enable-libcdio --enable-libgme --enable-libmodplug --enable-libopenmpt --enable-libopencore-amrwb --enable-libmp3lame --enable-libshine --enable-libtheora --enable-libtwolame --enable-libvo-amrwbenc --enable-libcodec2 --enable-libilbc --enable-libgsm --enable-libopencore-amrnb --enable-libopus --enable-libspeex --enable-libvorbis --enable-ladspa --enable-libbs2b --enable-libflite --enable-libmysofa --enable-librubberband --enable-libsoxr --enable-chromaprint
  66. libavutil 58. 39.100 / 58. 39.100
  67. libavcodec 60. 40.100 / 60. 40.100
  68. libavformat 60. 21.101 / 60. 21.101
  69. libavdevice 60. 4.100 / 60. 4.100
  70. libavfilter 9. 17.100 / 9. 17.100
  71. libswscale 7. 6.100 / 7. 6.100
  72. libswresample 4. 13.100 / 4. 13.100
  73. libpostproc 57. 4.100 / 57. 4.100
  74. [matroska,webm @ 00000197ed208000] Invalid Block Addition value 0x0 for unknown Block Addition Mapping type 68766345, name "Dolby Vision enhancement-layer HEVC configuration"
  75. [matroska,webm @ 00000197ed208000] Stream #10: not enough frames to estimate rate; consider increasing probesize
  76. [matroska,webm @ 00000197ed208000] Could not find codec parameters for stream 9 (Subtitle: hdmv_pgs_subtitle (pgssub)): unspecified size
  77. Consider increasing the value for the 'analyzeduration' (0) and 'probesize' (5000000) options
  78. Input #0, matroska,webm, from 'C:\Users\Emilio\Desktop\GODMASTER.mkv':
  79. Metadata:
  80. title : ゴジラ-1.0 4K Ultra HD Blu-ray
  81. encoder : libebml v1.4.5 + libmatroska v1.7.1
  82. creation_time : 2024-05-19T18:01:45.000000Z
  83. Duration: 02:04:38.22, start: 0.000000, bitrate: 81959 kb/s
  84. Chapters:
  85. Chapter #0:0: start 0.000000, end 787.495022
  86. Metadata:
  87. title : Capítulo 01
  88. Chapter #0:1: start 787.495022, end 1193.650778
  89. Metadata:
  90. title : Capítulo 02
  91. Chapter #0:2: start 1193.650778, end 1817.565733
  92. Metadata:
  93. title : Capítulo 03
  94. Chapter #0:3: start 1817.565733, end 2679.551867
  95. Metadata:
  96. title : Capítulo 04
  97. Chapter #0:4: start 2679.551867, end 3134.005867
  98. Metadata:
  99. title : Capítulo 05
  100. Chapter #0:5: start 3134.005867, end 3928.257667
  101. Metadata:
  102. title : Capítulo 06
  103. Chapter #0:6: start 3928.257667, end 4478.265444
  104. Metadata:
  105. title : Capítulo 07
  106. Chapter #0:7: start 4478.265444, end 4665.702689
  107. Metadata:
  108. title : Capítulo 08
  109. Chapter #0:8: start 4665.702689, end 5127.997867
  110. Metadata:
  111. title : Capítulo 09
  112. Chapter #0:9: start 5127.997867, end 5767.011244
  113. Metadata:
  114. title : Capítulo 10
  115. Chapter #0:10: start 5767.011244, end 7124.784333
  116. Metadata:
  117. title : Capítulo 11
  118. Chapter #0:11: start 7124.784333, end 7478.221000
  119. Metadata:
  120. title : Capítulo 12
  121. Stream #0:0: Video: hevc (Main 10), yuv420p10le(tv, bt2020nc/bt2020/smpte2084), 3840x2160 [SAR 1:1 DAR 16:9], 23.98 fps, 23.98 tbr, 1k tbn (default)
  122. Metadata:
  123. BPS : 69848808
  124. DURATION : 02:04:37.470000000
  125. NUMBER_OF_FRAMES: 179280
  126. NUMBER_OF_BYTES : 65286545952
  127. SOURCE_ID : 001011
  128. _STATISTICS_WRITING_APP: mkvmerge v84.0 ('Sleeper') 64-bit
  129. _STATISTICS_WRITING_DATE_UTC: 2024-05-19 18:01:45
  130. _STATISTICS_TAGS: BPS DURATION NUMBER_OF_FRAMES NUMBER_OF_BYTES SOURCE_ID
  131. Side data:
  132. DOVI configuration record: version: 1.0, profile: 7, level: 6, rpu flag: 1, el flag: 1, bl flag: 1, compatibility id: 6
  133. Stream #0:1(jpn): Audio: truehd (Dolby TrueHD + Dolby Atmos), 48000 Hz, 7.1, s32 (24 bit) (default)
  134. Metadata:
  135. BPS : 4230048
  136. DURATION : 02:04:37.504000000
  137. NUMBER_OF_FRAMES: 8973005
  138. NUMBER_OF_BYTES : 3953775454
  139. SOURCE_ID : 001100
  140. _STATISTICS_WRITING_APP: mkvmerge v84.0 ('Sleeper') 64-bit
  141. _STATISTICS_WRITING_DATE_UTC: 2024-05-19 18:01:45
  142. _STATISTICS_TAGS: BPS DURATION NUMBER_OF_FRAMES NUMBER_OF_BYTES SOURCE_ID
  143. Stream #0:2(jpn): Audio: ac3, 48000 Hz, 5.1(side), fltp, 640 kb/s (default)
  144. Metadata:
  145. BPS : 640000
  146. DURATION : 02:04:37.504000000
  147. NUMBER_OF_FRAMES: 233672
  148. NUMBER_OF_BYTES : 598200320
  149. SOURCE_ID : 001100
  150. _STATISTICS_WRITING_APP: mkvmerge v84.0 ('Sleeper') 64-bit
  151. _STATISTICS_WRITING_DATE_UTC: 2024-05-19 18:01:45
  152. _STATISTICS_TAGS: BPS DURATION NUMBER_OF_FRAMES NUMBER_OF_BYTES SOURCE_ID
  153. Stream #0:3(jpn): Audio: truehd, 48000 Hz, 5.1(side), s32 (24 bit) (default)
  154. Metadata:
  155. BPS : 3138030
  156. DURATION : 02:04:37.504000000
  157. NUMBER_OF_FRAMES: 8973005
  158. NUMBER_OF_BYTES : 2933079566
  159. SOURCE_ID : 001101
  160. _STATISTICS_WRITING_APP: mkvmerge v84.0 ('Sleeper') 64-bit
  161. _STATISTICS_WRITING_DATE_UTC: 2024-05-19 18:01:45
  162. _STATISTICS_TAGS: BPS DURATION NUMBER_OF_FRAMES NUMBER_OF_BYTES SOURCE_ID
  163. Stream #0:4(jpn): Audio: ac3, 48000 Hz, 5.1(side), fltp, 640 kb/s (default)
  164. Metadata:
  165. BPS : 640000
  166. DURATION : 02:04:37.504000000
  167. NUMBER_OF_FRAMES: 233672
  168. NUMBER_OF_BYTES : 598200320
  169. SOURCE_ID : 001101
  170. _STATISTICS_WRITING_APP: mkvmerge v84.0 ('Sleeper') 64-bit
  171. _STATISTICS_WRITING_DATE_UTC: 2024-05-19 18:01:45
  172. _STATISTICS_TAGS: BPS DURATION NUMBER_OF_FRAMES NUMBER_OF_BYTES SOURCE_ID
  173. Stream #0:5(jpn): Audio: truehd, 48000 Hz, stereo, s32 (24 bit) (default)
  174. Metadata:
  175. BPS : 1355015
  176. DURATION : 02:04:38.017000000
  177. NUMBER_OF_FRAMES: 8973620
  178. NUMBER_OF_BYTES : 1266603380
  179. SOURCE_ID : 001102
  180. _STATISTICS_WRITING_APP: mkvmerge v84.0 ('Sleeper') 64-bit
  181. _STATISTICS_WRITING_DATE_UTC: 2024-05-19 18:01:45
  182. _STATISTICS_TAGS: BPS DURATION NUMBER_OF_FRAMES NUMBER_OF_BYTES SOURCE_ID
  183. Stream #0:6(jpn): Audio: ac3, 48000 Hz, stereo, fltp, 192 kb/s (default)
  184. Metadata:
  185. BPS : 192000
  186. DURATION : 02:04:38.016000000
  187. NUMBER_OF_FRAMES: 233688
  188. NUMBER_OF_BYTES : 179472384
  189. SOURCE_ID : 001102
  190. _STATISTICS_WRITING_APP: mkvmerge v84.0 ('Sleeper') 64-bit
  191. _STATISTICS_WRITING_DATE_UTC: 2024-05-19 18:01:45
  192. _STATISTICS_TAGS: BPS DURATION NUMBER_OF_FRAMES NUMBER_OF_BYTES SOURCE_ID
  193. Stream #0:7(jpn): Audio: truehd, 48000 Hz, stereo, s32 (24 bit) (default)
  194. Metadata:
  195. BPS : 1390048
  196. DURATION : 02:04:38.017000000
  197. NUMBER_OF_FRAMES: 8973620
  198. NUMBER_OF_BYTES : 1299350572
  199. SOURCE_ID : 001103
  200. _STATISTICS_WRITING_APP: mkvmerge v84.0 ('Sleeper') 64-bit
  201. _STATISTICS_WRITING_DATE_UTC: 2024-05-19 18:01:45
  202. _STATISTICS_TAGS: BPS DURATION NUMBER_OF_FRAMES NUMBER_OF_BYTES SOURCE_ID
  203. Stream #0:8(jpn): Audio: ac3, 48000 Hz, stereo, fltp, 192 kb/s (default)
  204. Metadata:
  205. BPS : 192000
  206. DURATION : 02:04:38.016000000
  207. NUMBER_OF_FRAMES: 233688
  208. NUMBER_OF_BYTES : 179472384
  209. SOURCE_ID : 001103
  210. _STATISTICS_WRITING_APP: mkvmerge v84.0 ('Sleeper') 64-bit
  211. _STATISTICS_WRITING_DATE_UTC: 2024-05-19 18:01:45
  212. _STATISTICS_TAGS: BPS DURATION NUMBER_OF_FRAMES NUMBER_OF_BYTES SOURCE_ID
  213. Stream #0:9(jpn): Subtitle: hdmv_pgs_subtitle (pgssub) (default)
  214. Metadata:
  215. BPS : 174224
  216. DURATION : 02:03:24.773000000
  217. NUMBER_OF_FRAMES: 8090
  218. NUMBER_OF_BYTES : 161261449
  219. SOURCE_ID : 0012a0
  220. _STATISTICS_WRITING_APP: mkvmerge v84.0 ('Sleeper') 64-bit
  221. _STATISTICS_WRITING_DATE_UTC: 2024-05-19 18:01:45
  222. _STATISTICS_TAGS: BPS DURATION NUMBER_OF_FRAMES NUMBER_OF_BYTES SOURCE_ID
  223. Stream #0:10: Video: mjpeg (Baseline), yuvj420p(pc, bt470bg/unknown/unknown), 640x360 [SAR 72:72 DAR 16:9], 90k tbr, 90k tbn (attached pic)
  224. Metadata:
  225. filename : cover.jpg
  226. mimetype : image/jpeg
  227. Stream mapping:
  228. Stream #0:0 -> #0:0 (copy)
  229. Output #0, hevc, to 'pipe:':
  230. Metadata:
  231. title : ゴジラ-1.0 4K Ultra HD Blu-ray
  232. encoder : Lavf60.21.101
  233. Chapters:
  234. Chapter #0:0: start 0.000000, end 787.495022
  235. Metadata:
  236. title : Capítulo 01
  237. Chapter #0:1: start 787.495022, end 1193.650778
  238. Metadata:
  239. title : Capítulo 02
  240. Chapter #0:2: start 1193.650778, end 1817.565733
  241. Metadata:
  242. title : Capítulo 03
  243. Chapter #0:3: start 1817.565733, end 2679.551867
  244. Metadata:
  245. title : Capítulo 04
  246. Chapter #0:4: start 2679.551867, end 3134.005867
  247. Metadata:
  248. title : Capítulo 05
  249. Chapter #0:5: start 3134.005867, end 3928.257667
  250. Metadata:
  251. title : Capítulo 06
  252. Chapter #0:6: start 3928.257667, end 4478.265444
  253. Metadata:
  254. title : Capítulo 07
  255. Chapter #0:7: start 4478.265444, end 4665.702689
  256. Metadata:
  257. title : Capítulo 08
  258. Chapter #0:8: start 4665.702689, end 5127.997867
  259. Metadata:
  260. title : Capítulo 09
  261. Chapter #0:9: start 5127.997867, end 5767.011244
  262. Metadata:
  263. title : Capítulo 10
  264. Chapter #0:10: start 5767.011244, end 7124.784333
  265. Metadata:
  266. title : Capítulo 11
  267. Chapter #0:11: start 7124.784333, end 7478.221000
  268. Metadata:
  269. title : Capítulo 12
  270. Stream #0:0: Video: hevc (Main 10), yuv420p10le(tv, bt2020nc/bt2020/smpte2084), 3840x2160 [SAR 1:1 DAR 16:9], q=2-31, 23.98 fps, 23.98 tbr, 23.98 tbn (default)
  271. Metadata:
  272. BPS : 69848808
  273. DURATION : 02:04:37.470000000
  274. NUMBER_OF_FRAMES: 179280
  275. NUMBER_OF_BYTES : 65286545952
  276. SOURCE_ID : 001011
  277. _STATISTICS_WRITING_APP: mkvmerge v84.0 ('Sleeper') 64-bit
  278. _STATISTICS_WRITING_DATE_UTC: 2024-05-19 18:01:45
  279. _STATISTICS_TAGS: BPS DURATION NUMBER_OF_FRAMES NUMBER_OF_BYTES SOURCE_ID
  280. Side data:
  281. DOVI configuration record: version: 1.0, profile: 7, level: 6, rpu flag: 1, el flag: 1, bl flag: 1, compatibility id: 6
  282. Press [q] to stop, [?] for help
  283. [hevc @ 00000197ee23d000] Application provided invalid, non monotonically increasing dts to muxer in stream 0: 19 >= 18
  284. [hevc @ 00000197ee23d000] Application provided invalid, non monotonically increasing dts to muxer in stream 0: 19 >= 19
  285. [out#0/hevc @ 00000197ed2491c0] video:63762972KiB audio:0KiB subtitle:0KiB other streams:0KiB global headers:1KiB muxing overhead: 0.000000%
  286. size=63762972KiB time=02:04:38.17 bitrate=69849.4kbits/s speed=17.8x
  287. Indexing the base layer...
  288. Project
  289. 100
  290. Indexing the enhancement layer...
  291. Project
  292. 100
  293. Error: Invalid PPS index
  294. Error: No RPU found
  295. [avisynth @ 000001d6627a93c0] DoViBaker: parse_rpu_bin_file: Errored while parsing: No RPU found
  296. (H:\HDRtoSDR\HDRtoSDR\temp.folder49\script.avs, line 7)
  297. [in#0 @ 000001d66278aa80] Error opening input: Unknown error occurred
  298. Error opening input file H:\HDRtoSDR\HDRtoSDR\temp.folder49\script.avs.
  299. Error opening input files: Unknown error occurred
  300. Error: El sistema no puede encontrar el archivo especificado. (os error 2)
  301. Input doesnt have a 100nits trim pass.
Advertisement
Add Comment
Please, Sign In to add comment
Advertisement